[ create a new paste ] login | about

Link: http://codepad.org/wCXIPuT6    [ raw code | fork ]

Plain Text, pasted on Mar 9:
[CUETools log; Date: 3/9/2018 9:55:41 AM; Version: 2.1.5]
[CTDB TOCID: pUHpALDlOAa7SYPDmD8foXALER8-] found.
Track | CTDB Status
  1   | (6/6) Accurately ripped
  2   | (6/6) Accurately ripped
  3   | (6/6) Accurately ripped
  4   | (6/6) Accurately ripped
  5   | (6/6) Accurately ripped
  6   | (6/6) Accurately ripped
  7   | (6/6) Accurately ripped
  8   | (6/6) Accurately ripped
  9   | (6/6) Accurately ripped
 10   | (6/6) Accurately ripped
 11   | (6/6) Accurately ripped
 12   | (6/6) Accurately ripped
[AccurateRip ID: 0015d297-00cdf5fb-b00bdd0c] found.
Track   [  CRC   |   V2   ] Status
 01     [5e3ff59d|0310de9c] (00+00/10) No match
 02     [4dd13374|73e4366c] (00+00/10) No match
 03     [e4d0479b|aeeaeffe] (00+00/10) No match
 04     [1355da5f|8a6acdc5] (00+00/10) No match
 05     [8d94f250|c8403fe2] (00+00/10) No match
 06     [cbac81fe|53b5e217] (00+00/10) No match
 07     [3c792377|e305469a] (00+00/10) No match
 08     [49a0e2af|9d621452] (00+00/10) No match
 09     [1701e838|f35f43a8] (00+00/10) No match
 10     [93764826|81357821] (00+00/10) No match
 11     [da31a4db|d8a59a96] (00+00/10) No match
 12     [5c160840|1e54cee1] (00+00/10) No match
Offsetted by 666:
 01     [94146345] (04/10) Accurately ripped
 02     [31ffbaba] (04/10) Accurately ripped
 03     [da94a9d1] (04/10) Accurately ripped
 04     [b1822c81] (04/10) Accurately ripped
 05     [bc4139b0] (04/10) Accurately ripped
 06     [54008168] (04/10) Accurately ripped
 07     [7b70dbcd] (04/10) Accurately ripped
 08     [33253883] (04/10) Accurately ripped
 09     [98b13da6] (04/10) Accurately ripped
 10     [a7a8977a] (04/10) Accurately ripped
 11     [b44bd619] (04/10) Accurately ripped
 12     [51fd70d9] (04/10) Accurately ripped
Offsetted by -1:
 01     [a5d51835] (00/10) No match (V2 was not tested)
 02     [b29152c5] (00/10) No match (V2 was not tested)
 03     [b2797f94] (00/10) No match (V2 was not tested)
 04     [73f6758a] (00/10) No match (V2 was not tested)
 05     [fb7217e0] (00/10) No match (V2 was not tested)
 06     [3154bdf5] (00/10) No match (V2 was not tested)
 07     [1e658c20] (00/10) No match (V2 was not tested)
 08     [7df0411d] (00/10) No match (V2 was not tested)
 09     [36550e25] (00/10) No match (V2 was not tested)
 10     [aeb916d4] (00/10) No match (V2 was not tested)
 11     [f83b9940] (00/10) No match (V2 was not tested)
 12     [910e464d] (00/10) No match (V2 was not tested)

Track Peak [ CRC32  ] [W/O NULL] [  LOG   ]
 --   98.8 [12E98161] [E6A86EB3]           
 01   98.8 [28020851] [48834DE4]   CRC32   
 02   98.8 [6C09E6D7] [641672B3]   CRC32   
 03   98.8 [7BB37476] [D46EE6F0]   CRC32   
 04   98.8 [8F0E110D] [5F4DD1FA]   CRC32   
 05   98.8 [31622D1A] [911E80FC]   CRC32   
 06   98.8 [5877E138] [825ED7B8]   CRC32   
 07   98.8 [2926F080] [DFAC7160]   CRC32   
 08   98.8 [C7A6C34A] [C24E9BBF]   CRC32   
 09   98.8 [60C829F4] [834B75F8]   CRC32   
 10   98.8 [1B7A2C8C] [E2581E23]   CRC32   
 11   98.8 [56A06EFE] [8F0C8F6C]   CRC32   
 12   98.8 [E7D33A41] [33D8A8FC]   CRC32   



Create a new paste based on this one


Comments: