[ create a new paste ] login | about

Link: http://codepad.org/wCt0Iior    [ raw code | fork ]

Plain Text, pasted on Jul 18:
Exact Audio Copy V1.1 from 23. June 2015

EAC extraction logfile from 16. July 2016, 14:40

Lulu / Shout! (CD 1)

Used drive  : PLEXTOR DVDR   PX-716A   Adapter: 1  ID: 1

Read mode               : Secure
Utilize accurate stream : Yes
Defeat audio cache      : Yes
Make use of C2 pointers : No

Read offset correction                      : 30
Overread into Lead-In and Lead-Out          : No
Fill up missing offset samples with silence : Yes
Delete leading and trailing silent blocks   : No
Null samples used in CRC calculations       : Yes
Used interface                              : Native Win32 interface for Win NT & 2000

Used output format              : User Defined Encoder
Selected bitrate                : 1024 kBit/s
Quality                         : High
Add ID3 tag                     : No
Command line compressor         : C:\Program Files (x86)\Exact Audio Copy\wavpack.exe
Additional command line options : -hlm %source%


TOC of the extracted CD

     Track |   Start  |  Length  | Start sector | End sector 
    ---------------------------------------------------------
        1  |  0:00.00 |  2:56.46 |         0    |    13245   
        2  |  2:56.46 |  1:39.35 |     13246    |    20705   
        3  |  4:36.06 |  2:14.30 |     20706    |    30785   
        4  |  6:50.36 |  2:04.45 |     30786    |    40130   
        5  |  8:55.06 |  2:53.22 |     40131    |    53127   
        6  | 11:48.28 |  1:56.39 |     53128    |    61866   
        7  | 13:44.67 |  2:04.48 |     61867    |    71214   
        8  | 15:49.40 |  2:51.27 |     71215    |    84066   
        9  | 18:40.67 |  2:24.65 |     84067    |    94931   
       10  | 21:05.57 |  2:28.45 |     94932    |   106076   
       11  | 23:34.27 |  2:15.07 |    106077    |   116208   
       12  | 25:49.34 |  2:07.46 |    116209    |   125779   
       13  | 27:57.05 |  2:54.09 |    125780    |   138838   
       14  | 30:51.14 |  2:20.33 |    138839    |   149371   
       15  | 33:11.47 |  2:40.06 |    149372    |   161377   
       16  | 35:51.53 |  2:44.74 |    161378    |   173751   
       17  | 38:36.52 |  2:26.01 |    173752    |   184702   
       18  | 41:02.53 |  2:08.27 |    184703    |   194329   
       19  | 43:11.05 |  1:49.39 |    194330    |   202543   
       20  | 45:00.44 |  1:47.48 |    202544    |   210616   
       21  | 46:48.17 |  2:17.07 |    210617    |   220898   


Range status and errors

Selected range

     Filename D:\wwphil\Lulu\Shout! (CD 1)\Lulu - Shout! (CD 1).wav

     Peak level 98.8 %
     Extraction speed 3.7 X
     Range quality 100.0 %
     Test CRC 6F7584F1
     Copy CRC 6F7584F1
     Copy OK

No errors occurred

 
AccurateRip summary
 
Track  1  accurately ripped (confidence 6)  [6991EA93]  (AR v2)
Track  2  accurately ripped (confidence 6)  [71C10FF7]  (AR v2)
Track  3  accurately ripped (confidence 6)  [5EED1F1C]  (AR v2)
Track  4  accurately ripped (confidence 6)  [E95743F3]  (AR v2)
Track  5  accurately ripped (confidence 6)  [28816F23]  (AR v2)
Track  6  accurately ripped (confidence 6)  [B8D75482]  (AR v2)
Track  7  accurately ripped (confidence 6)  [20E606EF]  (AR v2)
Track  8  accurately ripped (confidence 6)  [E999421E]  (AR v2)
Track  9  accurately ripped (confidence 6)  [A863D23F]  (AR v2)
Track 10  accurately ripped (confidence 6)  [9E258926]  (AR v2)
Track 11  accurately ripped (confidence 6)  [7FBAF74A]  (AR v2)
Track 12  accurately ripped (confidence 6)  [E4AD43FF]  (AR v2)
Track 13  accurately ripped (confidence 6)  [6BEBB04E]  (AR v2)
Track 14  accurately ripped (confidence 6)  [EF445069]  (AR v2)
Track 15  accurately ripped (confidence 6)  [1A6ECFC4]  (AR v2)
Track 16  accurately ripped (confidence 6)  [F4C4BB1E]  (AR v2)
Track 17  accurately ripped (confidence 6)  [CD6B272F]  (AR v2)
Track 18  accurately ripped (confidence 6)  [888AE62C]  (AR v2)
Track 19  accurately ripped (confidence 6)  [65AAF19C]  (AR v2)
Track 20  accurately ripped (confidence 6)  [4E6FF2BA]  (AR v2)
Track 21  accurately ripped (confidence 6)  [42D740A8]  (AR v2)
 
All tracks accurately ripped

End of status report

==== Log checksum B288650C22FEFA7FAC1CB0450A6FD9E222C5D26C8B97D7B08D8784C514067F22 ====



Create a new paste based on this one


Comments: