[ create a new paste ] login | about

Link: http://codepad.org/wDzUA43r    [ raw code | fork ]

Plain Text, pasted on Mar 30:
Exact Audio Copy V1.3 from 2. September 2016

EAC extraction logfile from 22. March 2019, 9:35

Whitesnake / Slide It In CD2 Original UK Mix

Used drive  : PLEXTOR BD-R  PX-B950SA   Adapter: 1  ID: 1

Read mode               : Secure
Utilize accurate stream : Yes
Defeat audio cache      : Yes
Make use of C2 pointers : No

Read offset correction                      : 6
Overread into Lead-In and Lead-Out          : No
Fill up missing offset samples with silence : Yes
Delete leading and trailing silent blocks   : No
Null samples used in CRC calculations       : Yes
Used interface                              : Native Win32 interface for Win NT & 2000

Used output format : Internal WAV Routines
Sample format      : 44.100 Hz; 16 Bit; Stereo


TOC of the extracted CD

     Track |   Start  |  Length  | Start sector | End sector 
    ---------------------------------------------------------
        1  |  0:00.00 |  3:59.27 |         0    |    17951   
        2  |  3:59.27 |  3:17.43 |     17952    |    32769   
        3  |  7:16.70 |  6:00.00 |     32770    |    59769   
        4  | 13:16.70 |  4:06.66 |     59770    |    78285   
        5  | 17:23.61 |  3:42.09 |     78286    |    94944   
        6  | 21:05.70 |  3:34.47 |     94945    |   111041   
        7  | 24:40.42 |  3:57.57 |    111042    |   128873   
        8  | 28:38.24 |  3:40.49 |    128874    |   145422   
        9  | 32:18.73 |  4:14.09 |    145423    |   164481   
       10  | 36:33.07 |  3:23.60 |    164482    |   179766   
       11  | 39:56.67 |  3:13.57 |    179767    |   194298   
       12  | 43:10.49 |  4:00.54 |    194299    |   212352   
       13  | 47:11.28 |  3:24.40 |    212353    |   227692   


Range status and errors

Selected range

     Filename C:\Whitesnake\1984 Slide It In (7-Disc Box Set Rhino Records 2019)\CD2 Original UK Mix\Whitesnake - Slide It In CD2 Original UK Mix.wav

     Peak level 98.1 %
     Extraction speed 6.9 X
     Range quality 100.0 %
     Test CRC 5441BFC8
     Copy CRC 5441BFC8
     Copy OK

No errors occurred

 
AccurateRip summary
 
Track  1  not present in database
Track  2  not present in database
Track  3  not present in database
Track  4  not present in database
Track  5  not present in database
Track  6  not present in database
Track  7  not present in database
Track  8  not present in database
Track  9  not present in database
Track 10  not present in database
Track 11  not present in database
Track 12  not present in database
Track 13  not present in database
 
None of the tracks are present in the AccurateRip database

End of status report

---- CUETools DB Plugin V2.1.6

[CTDB TOCID: 7BGpN.IR14feh1ZWPHUhzK6nnog-] found
Submit result: 7BGpN.IR14feh1ZWPHUhzK6nnog- has been confirmed
Track | CTDB Status
  1   | ( 5/10) Accurately ripped
  2   | ( 5/10) Accurately ripped
  3   | ( 5/10) Accurately ripped
  4   | ( 5/10) Accurately ripped
  5   | ( 5/10) Accurately ripped
  6   | ( 5/10) Accurately ripped
  7   | ( 5/10) Accurately ripped
  8   | ( 5/10) Accurately ripped
  9   | ( 5/10) Accurately ripped
 10   | ( 5/10) Accurately ripped
 11   | ( 5/10) Accurately ripped
 12   | ( 5/10) Accurately ripped
 13   | ( 5/10) Accurately ripped


==== Log checksum 3E612326F711F4EC5C127113ECCF8379BF5B4E7627E23B946151DC2880BA8E1D ====



Create a new paste based on this one


Comments: