[ create a new paste ] login | about

Link: http://codepad.org/wFpX2ENl    [ raw code | fork ]

Plain Text, pasted on Aug 27:
foobar2000 1.3.17 / Dynamic Range Meter 1.1.1
log date: 2018-08-27 10:27:48

--------------------------------------------------------------------------------
Analyzed: The Guess Who / Road Food & #10
--------------------------------------------------------------------------------

DR         Peak         RMS     Duration Track
--------------------------------------------------------------------------------
DR11      -0.48 dB   -16.38 dB      2:42 01-Star Baby
DR12      -0.29 dB   -17.66 dB      4:54 02-Attila's Blues
DR15      -0.75 dB   -19.57 dB      2:27 03-Straighten Out
DR13      -0.45 dB   -17.04 dB      2:21 04-Don't You Want Me
DR14      -0.23 dB   -17.52 dB      5:29 05-One Way Road To Hell
DR15      -0.57 dB   -19.00 dB      4:16 06-Clap For The Wolfman
DR14      -2.26 dB   -20.10 dB      3:21 07-Pleasin' For Reason
DR13      -0.88 dB   -18.57 dB      3:42 08-Road Food
DR12      -2.43 dB   -19.31 dB      7:25 09-Ballad Of The Last Five Years
DR14      -1.18 dB   -18.67 dB      4:04 10-Take It Off My Shoulders
DR13      -0.37 dB   -15.36 dB      3:59 11-Musicione
DR13      -0.52 dB   -16.39 dB      4:28 12-Miss Frizzy
DR13      -0.19 dB   -16.50 dB      5:23 13-Glamour Boy
DR13      -0.62 dB   -17.27 dB      4:21 14-Self Pity
DR13      -0.33 dB   -15.98 dB      4:44 15-Lie Down
DR13      -0.01 dB   -16.30 dB      3:26 16-Cardboard Empire
DR12      -1.86 dB   -16.96 dB      6:16 17-Just Let Me Sing
--------------------------------------------------------------------------------

Number of tracks:  17
Official DR value: DR13

Samplerate:        88200 Hz
Channels:          4
Bits per sample:   24
Bitrate:           5631 kbps
Codec:             FLAC
================================================================================




Create a new paste based on this one


Comments: