[ create a new paste ] login | about

Link: http://codepad.org/wFrkDCtg    [ raw code | fork ]

Plain Text, pasted on Dec 14:
Exact Audio Copy V1.1 from 23. June 2015

EAC extraction logfile from 20. October 2015, 22:59

Duane Eddy / The Very Best Of

Used drive  : PLEXTOR DVDR   PX-810SA   Adapter: 1  ID: 0

Read mode               : Secure
Utilize accurate stream : Yes
Defeat audio cache      : Yes
Make use of C2 pointers : No

Read offset correction                      : 48
Overread into Lead-In and Lead-Out          : No
Fill up missing offset samples with silence : Yes
Delete leading and trailing silent blocks   : No
Null samples used in CRC calculations       : Yes
Used interface                              : Native Win32 interface for Win NT & 2000

Used output format              : User Defined Encoder
Selected bitrate                : 768 kBit/s
Quality                         : High
Add ID3 tag                     : No
Command line compressor         : C:\Program Files (x86)\Exact Audio Copy\FLAC\FLAC.EXE
Additional command line options : -6 -V -T "ARTIST=%artist%" -T "TITLE=%title%" -T "ALBUM=%albumtitle%" -T "DATE=%year%" -T "TRACKNUMBER=%tracknr%" -T "GENRE=%genre%" -T "COMMENT=%comment%" -T "BAND=%albuminterpret%" -T "ALBUMARTIST=%albuminterpret%" -T "COMPOSER=%composer%" %haslyrics%--tag-from-file=LYRICS="%lyricsfile%"%haslyrics% -T "DISCNUMBER=%cdnumber%" -T "TOTALDISCS=%totalcds%" -T "TOTALTRACKS=%numtracks%" %hascover%--picture="%coverfile%"%hascover% %source% -o %dest%


TOC of the extracted CD

     Track |   Start  |  Length  | Start sector | End sector 
    ---------------------------------------------------------
        1  |  0:00.00 |  2:02.30 |         0    |     9179   
        2  |  2:02.30 |  2:22.70 |      9180    |    19899   
        3  |  4:25.25 |  2:32.28 |     19900    |    31327   
        4  |  6:57.53 |  2:15.50 |     31328    |    41502   
        5  |  9:13.28 |  3:38.03 |     41503    |    57855   
        6  | 12:51.31 |  1:55.41 |     57856    |    66521   
        7  | 14:46.72 |  1:58.21 |     66522    |    75392   
        8  | 16:45.18 |  2:19.08 |     75393    |    85825   
        9  | 19:04.26 |  2:39.53 |     85826    |    97803   
       10  | 21:44.04 |  2:26.68 |     97804    |   108821   
       11  | 24:10.72 |  3:01.29 |    108822    |   122425   
       12  | 27:12.26 |  1:41.63 |    122426    |   130063   
       13  | 28:54.14 |  2:20.34 |    130064    |   140597   
       14  | 31:14.48 |  2:39.19 |    140598    |   152541   
       15  | 33:53.67 |  2:54.14 |    152542    |   165605   
       16  | 36:48.06 |  2:34.11 |    165606    |   177166   
       17  | 39:22.17 |  2:31.13 |    177167    |   188504   
       18  | 41:53.30 |  2:04.44 |    188505    |   197848   
       19  | 43:57.74 |  2:00.51 |    197849    |   206899   
       20  | 45:58.50 |  2:34.49 |    206900    |   218498   
       21  | 48:33.24 |  2:26.52 |    218499    |   229500   
       22  | 51:00.01 |  2:10.23 |    229501    |   239273   
       23  | 53:10.24 |  3:19.40 |    239274    |   254238   
       24  | 56:29.64 |  2:15.65 |    254239    |   264428   
       25  | 58:45.54 |  2:16.11 |    264429    |   274639   


Range status and errors

Selected range

     Filename Z:\audio\2015 - The Very Best Of Duane Eddy\CD2\Duane Eddy - The Very Best Of.wav

     Peak level 98.8 %
     Extraction speed 7.8 X
     Range quality 100.0 %
     Test CRC C2AABF3F
     Copy CRC C2AABF3F
     Copy OK

No errors occurred

End of status report

---- CUETools DB Plugin V2.1.6

[CTDB TOCID: yYhjPEaLv4RVt4koIMowWxJwUKg-] disk not present in database
Submit result: yYhjPEaLv4RVt4koIMowWxJwUKg- has been uploaded


==== Log checksum 84066BD326BE32E60F0540E66AF53118C225E91B2B862BECDBFE3A055C82E43F ====



Create a new paste based on this one


Comments: