[ create a new paste ] login | about

Link: http://codepad.org/wGzRwvOa    [ raw code | fork ]

Plain Text, pasted on Mar 9:
foobar2000 1.3 / Dynamic Range Meter 1.1.1
log date: 2014-02-03 14:24:54

--------------------------------------------------------------------------------
Analyzed: Lynyrd Skynyrd / Second Helping (2013 AP Hybrid SACD)
--------------------------------------------------------------------------------

DR         Peak         RMS     Duration Track
--------------------------------------------------------------------------------
DR11      -0.81 dB   -13.99 dB      4:44 01-Sweet Home Alabama
DR11      -0.98 dB   -14.86 dB      6:55 02-I Need You
DR11      -2.51 dB   -14.39 dB      3:25 03-Don't Ask Me No Questions
DR11      -1.66 dB   -13.56 dB      4:49 04-Workin' For MCA
DR12      -0.01 dB   -15.51 dB      4:52 05-The Ballad Of Curtis Loew
DR11      -3.03 dB   -15.23 dB      3:31 06-Swamp Music
DR10      -3.24 dB   -14.52 dB      3:54 07-The Needle And The Spoon
DR11      -1.24 dB   -13.78 dB      5:11 08-Call Me The Breeze
--------------------------------------------------------------------------------

Number of tracks:  8
Official DR value: DR11

Samplerate:        88200 Hz
Channels:          2
Bits per sample:   24
Bitrate:           2665 kbps
Codec:             FLAC
================================================================================




Create a new paste based on this one


Comments: