[ create a new paste ] login | about

Link: http://codepad.org/wJy4LqUD    [ raw code | fork ]

Plain Text, pasted on Oct 4:
CD1
->
Exact Audio Copy V1.3 from 2. September 2016

EAC extraction logfile from 2. October 2019, 16:06

The Beatles / Abbey Road 50th Anniversary Edition [2019 Stereo Remix]

Used drive  : HL-DT-STBD-RE  WH16NS60   Adapter: 1  ID: 0

Read mode               : Secure
Utilize accurate stream : Yes
Defeat audio cache      : Yes
Make use of C2 pointers : No

Read offset correction                      : 6
Overread into Lead-In and Lead-Out          : No
Fill up missing offset samples with silence : Yes
Delete leading and trailing silent blocks   : No
Null samples used in CRC calculations       : Yes
Used interface                              : Native Win32 interface for Win NT & 2000

Used output format              : User Defined Encoder
Selected bitrate                : 1024 kBit/s
Quality                         : High
Add ID3 tag                     : No
Command line compressor         : C:\Program Files (x86)\Exact Audio Copy\Flac\flac.exe
Additional command line options : -8 -V -T "ARTIST=%artist%" -T "ALBUM=%albumtitle%" -T "DATE=%year%" -T "GENRE=%genre%" -T "DISCNUMBER=%cdnumber%" -T "TOTALDISCS=%totalcds%" -T "TOTALTRACKS=%numtracks%" -T "COMMENT=EAC V1.3, Secure Mode, Test & Copy, AccurateRip, FLAC -8" %source% -o %dest%


TOC of the extracted CD

     Track |   Start  |  Length  | Start sector | End sector 
    ---------------------------------------------------------
        1  |  0:00.00 |  4:20.15 |         0    |    19514   
        2  |  4:20.15 |  3:02.17 |     19515    |    33181   
        3  |  7:22.32 |  3:27.73 |     33182    |    48779   
        4  | 10:50.30 |  3:27.11 |     48780    |    64315   
        5  | 14:17.41 |  2:50.60 |     64316    |    77125   
        6  | 17:08.26 |  7:47.27 |     77126    |   112177   
        7  | 24:55.53 |  3:05.53 |    112178    |   126105   
        8  | 28:01.31 |  2:45.46 |    126106    |   138526   
        9  | 30:47.02 |  4:02.50 |    138527    |   156726   
       10  | 34:49.52 |  2:26.25 |    156727    |   167701   
       11  | 37:16.02 |  1:06.35 |    167702    |   172686   
       12  | 38:22.37 |  1:12.60 |    172687    |   178146   
       13  | 39:35.22 |  1:58.61 |    178147    |   187057   
       14  | 41:34.08 |  1:31.33 |    187058    |   193915   
       15  | 43:05.41 |  1:36.33 |    193916    |   201148   
       16  | 44:41.74 |  2:21.68 |    201149    |   211791   
       17  | 47:03.67 |  0:25.09 |    211792    |   213675   


Range status and errors

Selected range

     Filename D:\Losslessma.net\Abbey Road (1969) [2019 50th Anniversary 3CD+BD]\CD 1\CD 1.wav

     Peak level 98.9 %
     Extraction speed 3.3 X
     Range quality 100.0 %
     Test CRC 1487E5B6
     Copy CRC 1487E5B6
     Copy OK

No errors occurred

 
AccurateRip summary
 
Track  1  not present in database
Track  2  not present in database
Track  3  not present in database
Track  4  not present in database
Track  5  not present in database
Track  6  not present in database
Track  7  not present in database
Track  8  not present in database
Track  9  not present in database
Track 10  not present in database
Track 11  not present in database
Track 12  not present in database
Track 13  not present in database
Track 14  not present in database
Track 15  not present in database
Track 16  not present in database
Track 17  not present in database
 
None of the tracks are present in the AccurateRip database

End of status report

---- CUETools DB Plugin V2.1.6

[CTDB TOCID: wx83FniMX1VxiTDe_iZCb7.lUFk-] found
Submit result: wx83FniMX1VxiTDe_iZCb7.lUFk- has been confirmed
Track | CTDB Status
  1   | (407/408) Accurately ripped
  2   | (407/408) Accurately ripped
  3   | (407/408) Accurately ripped
  4   | (407/408) Accurately ripped
  5   | (407/408) Accurately ripped
  6   | (407/408) Accurately ripped
  7   | (406/408) Accurately ripped
  8   | (407/408) Accurately ripped
  9   | (406/408) Accurately ripped
 10   | (405/408) Accurately ripped
 11   | (406/408) Accurately ripped
 12   | (407/408) Accurately ripped
 13   | (406/408) Accurately ripped
 14   | (406/408) Accurately ripped
 15   | (406/408) Accurately ripped
 16   | (404/408) Accurately ripped
 17   | (404/408) Accurately ripped


==== Log checksum 186009277402A140F0A0C5270256D489D3909D96F7C3E953710772AC212E106E ====
->
=========================================================================================================================================================
->
CD2
->
Exact Audio Copy V1.3 from 2. September 2016

EAC extraction logfile from 2. October 2019, 16:31

The Beatles / Abbey Road Sessions CD2

Used drive  : HL-DT-STBD-RE  WH16NS60   Adapter: 1  ID: 0

Read mode               : Secure
Utilize accurate stream : Yes
Defeat audio cache      : Yes
Make use of C2 pointers : No

Read offset correction                      : 6
Overread into Lead-In and Lead-Out          : No
Fill up missing offset samples with silence : Yes
Delete leading and trailing silent blocks   : No
Null samples used in CRC calculations       : Yes
Used interface                              : Native Win32 interface for Win NT & 2000

Used output format              : User Defined Encoder
Selected bitrate                : 1024 kBit/s
Quality                         : High
Add ID3 tag                     : No
Command line compressor         : C:\Program Files (x86)\Exact Audio Copy\Flac\flac.exe
Additional command line options : -8 -V -T "ARTIST=%artist%" -T "ALBUM=%albumtitle%" -T "DATE=%year%" -T "GENRE=%genre%" -T "DISCNUMBER=%cdnumber%" -T "TOTALDISCS=%totalcds%" -T "TOTALTRACKS=%numtracks%" -T "COMMENT=EAC V1.3, Secure Mode, Test & Copy, AccurateRip, FLAC -8" %source% -o %dest%


TOC of the extracted CD

     Track |   Start  |  Length  | Start sector | End sector 
    ---------------------------------------------------------
        1  |  0:00.00 |  6:59.45 |         0    |    31469   
        2  |  6:59.45 |  2:23.53 |     31470    |    42247   
        3  |  9:23.23 |  3:37.17 |     42248    |    58539   
        4  | 13:00.40 |  3:37.49 |     58540    |    74863   
        5  | 16:38.14 |  3:15.62 |     74864    |    89550   
        6  | 19:54.01 |  3:30.54 |     89551    |   105354   
        7  | 23:24.55 |  1:43.00 |    105355    |   113079   
        8  | 25:07.55 |  5:17.66 |    113080    |   136920   
        9  | 30:25.46 |  1:33.71 |    136921    |   143966   
       10  | 31:59.42 |  3:20.38 |    143967    |   159004   
       11  | 35:20.05 |  3:40.73 |    159005    |   175577   
       12  | 39:01.03 |  4:44.33 |    175578    |   196910   


Range status and errors

Selected range

     Filename D:\Losslessma.net\Abbey Road (1969) [2019 50th Anniversary 3CD+BD]\CD 2\CD 2.wav

     Peak level 98.0 %
     Extraction speed 4.3 X
     Range quality 99.9 %
     Test CRC 14EFF5EB
     Copy CRC 14EFF5EB
     Copy OK

No errors occurred

 
AccurateRip summary
 
Track  1  not present in database
Track  2  not present in database
Track  3  not present in database
Track  4  not present in database
Track  5  not present in database
Track  6  not present in database
Track  7  not present in database
Track  8  not present in database
Track  9  not present in database
Track 10  not present in database
Track 11  not present in database
Track 12  not present in database
 
None of the tracks are present in the AccurateRip database

End of status report

---- CUETools DB Plugin V2.1.6

[CTDB TOCID: VG.eVlI_11iPHeDHIR7Ji1EUtGU-] found
Submit result: VG.eVlI_11iPHeDHIR7Ji1EUtGU- has been confirmed
Track | CTDB Status
  1   | (232/234) Accurately ripped
  2   | (232/234) Accurately ripped
  3   | (232/234) Accurately ripped
  4   | (231/234) Accurately ripped
  5   | (232/234) Accurately ripped
  6   | (232/234) Accurately ripped
  7   | (231/234) Accurately ripped
  8   | (231/234) Accurately ripped
  9   | (231/234) Accurately ripped
 10   | (228/234) Accurately ripped
 11   | (227/234) Accurately ripped
 12   | (219/234) Accurately ripped, or (3/234) differs in 2249 samples @04:44:17-04:44:21, or (2/234) differs in 2154 samples @04:44:17-04:44:21


==== Log checksum 6F61E9D24AA941E12F13230B4B167553F5D228BC76B9E65DB9B0826B7DB07FA2 ====
->
=========================================================================================================================================================
->
CD3
->
Exact Audio Copy V1.3 from 2. September 2016

EAC extraction logfile from 2. October 2019, 17:20

The Beatles / Abbey Road Sessions CD3

Used drive  : HL-DT-STBD-RE  WH16NS60   Adapter: 1  ID: 0

Read mode               : Secure
Utilize accurate stream : Yes
Defeat audio cache      : Yes
Make use of C2 pointers : No

Read offset correction                      : 6
Overread into Lead-In and Lead-Out          : No
Fill up missing offset samples with silence : Yes
Delete leading and trailing silent blocks   : No
Null samples used in CRC calculations       : Yes
Used interface                              : Native Win32 interface for Win NT & 2000

Used output format              : User Defined Encoder
Selected bitrate                : 1024 kBit/s
Quality                         : High
Add ID3 tag                     : No
Command line compressor         : C:\Program Files (x86)\Exact Audio Copy\Flac\flac.exe
Additional command line options : -8 -V -T "ARTIST=%artist%" -T "ALBUM=%albumtitle%" -T "DATE=%year%" -T "GENRE=%genre%" -T "DISCNUMBER=%cdnumber%" -T "TOTALDISCS=%totalcds%" -T "TOTALTRACKS=%numtracks%" -T "COMMENT=EAC V1.3, Secure Mode, Test & Copy, AccurateRip, FLAC -8" %source% -o %dest%


TOC of the extracted CD

     Track |   Start  |  Length  | Start sector | End sector 
    ---------------------------------------------------------
        1  |  0:00.00 |  3:30.11 |         0    |    15760   
        2  |  3:30.11 |  2:11.06 |     15761    |    25591   
        3  |  5:41.17 |  2:42.57 |     25592    |    37798   
        4  |  8:23.74 |  3:14.02 |     37799    |    52350   
        5  | 11:38.01 |  1:34.22 |     52351    |    59422   
        6  | 13:12.23 |  1:39.12 |     59423    |    66859   
        7  | 14:51.35 |  2:06.06 |     66860    |    76315   
        8  | 16:57.41 |  3:07.39 |     76316    |    90379   
        9  | 20:05.05 | 16:10.35 |     90380    |   163164   
       10  | 36:15.40 |  2:41.54 |    163165    |   175293   
       11  | 38:57.19 |  3:17.20 |    175294    |   190088   


Range status and errors

Selected range

     Filename D:\Losslessma.net\Abbey Road (1969) [2019 50th Anniversary 3CD+BD]\CD 3\CD 3.wav

     Peak level 98.0 %
     Extraction speed 5.6 X
     Range quality 99.9 %
     Test CRC 8A626413
     Copy CRC 8A626413
     Copy OK

No errors occurred

 
AccurateRip summary
 
Track  1  not present in database
Track  2  not present in database
Track  3  not present in database
Track  4  not present in database
Track  5  not present in database
Track  6  not present in database
Track  7  not present in database
Track  8  not present in database
Track  9  not present in database
Track 10  not present in database
Track 11  not present in database
 
None of the tracks are present in the AccurateRip database

End of status report

---- CUETools DB Plugin V2.1.6

[CTDB TOCID: xIW7Wy.0sQowpyqptijik5djOws-] found
Submit result: already submitted
Track | CTDB Status
  1   | (246/248) Accurately ripped
  2   | (246/248) Accurately ripped
  3   | (246/248) Accurately ripped
  4   | (246/248) Accurately ripped
  5   | (246/248) Accurately ripped
  6   | (246/248) Accurately ripped
  7   | (246/248) Accurately ripped
  8   | (246/248) Accurately ripped
  9   | (244/248) Accurately ripped
 10   | (245/248) Accurately ripped
 11   | (245/248) Accurately ripped


==== Log checksum C9445FAE52B4BF689D3F8F90CA19FA9C5EDCFC118841223AF6A629AFB6F5F0BC ====



Create a new paste based on this one


Comments: