[ create a new paste ] login | about

Link: http://codepad.org/wNd0pjWc    [ raw code | fork ]

Plain Text, pasted on May 9:
[CUETools log; Date: 5/10/2016 1:06:15 AM; Version: 2.1.5]
CD-Extra data track length 00:45:53.
[CTDB TOCID: HZcqV8CAM6bkDUYdtGZXEoQDedE-] found.
Track | CTDB Status
  1   | (51/51) Accurately ripped
  2   | (51/51) Accurately ripped
  3   | (51/51) Accurately ripped
  4   | (51/51) Accurately ripped
  5   | (51/51) Accurately ripped
[AccurateRip ID: 0003f6e0-0012daf8-47051806] found.
Track   [  CRC   |   V2   ] Status
 01     [c3f4afa6|5a0e3a83] (19+20/39) Accurately ripped
 02     [a22063c4|2616af9f] (19+19/38) Accurately ripped
 03     [7f12b97b|b6f5deff] (19+20/39) Accurately ripped
 04     [37c2b947|7a3bc557] (19+20/39) Accurately ripped
 05     [663be242|c5bc6152] (18+20/38) Accurately ripped

Track Peak [ CRC32  ] [W/O NULL] [  LOG   ]
 --   95.3 [261432ED] [303AFA29]           
 01   68.8 [4BEEA37B] [4F75CE51]   CRC32   
 02   95.3 [13DC37DA] [9219BB7B]   CRC32   
 03   87.1 [B2D7073A] [34F2E17C]   CRC32   
 04   86.3 [E66E5530] [8B47CA81]   CRC32   
 05   88.4 [DB7E50AC] [C538DBA9]   CRC32   



Create a new paste based on this one


Comments: