[ create a new paste ] login | about

Link: http://codepad.org/wO77T1Q6    [ raw code | fork ]

Plain Text, pasted on Oct 27:
[CUETools log; Date: 10/27/2016 12:40:23 PM; Version: 2.1.5]
Pregap length 00:00:37.
[CTDB TOCID: OL29kJHr5mBGn0nUnB8CPOHAX6I-] found.
Track | CTDB Status
  1   | (15/16) Accurately ripped
  2   | (16/16) Accurately ripped
  3   | (16/16) Accurately ripped
  4   | (16/16) Accurately ripped
  5   | (16/16) Accurately ripped
  6   | (16/16) Accurately ripped
  7   | (16/16) Accurately ripped
  8   | (16/16) Accurately ripped
  9   | (16/16) Accurately ripped
 10   | (16/16) Accurately ripped
[AccurateRip ID: 000f4ea7-0079e491-7609730a] found.
Track   [  CRC   |   V2   ] Status
 01     [5d495c76|93c79e4a] (23+31/54) Accurately ripped
 02     [66a7ff2b|8d589dec] (23+30/53) Accurately ripped
 03     [d5627319|be6ee462] (23+30/53) Accurately ripped
 04     [d4aaa16e|3d60f3dd] (22+30/52) Accurately ripped
 05     [c27bdf3d|7465df12] (22+30/52) Accurately ripped
 06     [e6425299|a355aab7] (23+30/53) Accurately ripped
 07     [b73e189d|05339ee2] (23+30/53) Accurately ripped
 08     [0851b5a4|694653ae] (23+30/53) Accurately ripped
 09     [873a4735|3ac6cdfa] (22+30/52) Accurately ripped
 10     [e1f1b759|69c24f14] (22+30/52) Accurately ripped

Track Peak [ CRC32  ] [W/O NULL] [  LOG   ]
 --   92.5 [F5FD075A] [26480235]           
 01   85.9 [4E82C12C] [11490599]   CRC32   
 02   76.2 [D5932F46] [5044FC4A]   CRC32   
 03   74.1 [8073C13B] [0BF51842]   CRC32   
 04   84.1 [C3259A67] [B5AF3466]   CRC32   
 05   92.5 [D5565454] [C9D73477]   CRC32   
 06   75.7 [6CA539E9] [C172BF92]   CRC32   
 07   83.5 [FBC3D281] [0F8F5DB7]   CRC32   
 08   83.9 [DD7627E6] [27484498]   CRC32   
 09   73.7 [BC81FB86] [99B99AFE]   CRC32   
 10   57.5 [EC17E82C] [B42B8CCA]   CRC32   



Create a new paste based on this one


Comments: