[ create a new paste ] login | about

Link: http://codepad.org/wRsUug3O    [ raw code | fork ]

Plain Text, pasted on Mar 26:
Exact Audio Copy V1.1 from 23. June 2015

EAC extraction logfile from 6. March 2016, 14:09

Simply Red / Song Book 1985 - 2010 [Disc Two]

Used drive  : hp      CDDVDW SH-216BB   Adapter: 1  ID: 0

Read mode               : Secure
Utilize accurate stream : Yes
Defeat audio cache      : Yes
Make use of C2 pointers : No

Read offset correction                      : 6
Overread into Lead-In and Lead-Out          : No
Fill up missing offset samples with silence : Yes
Delete leading and trailing silent blocks   : No
Null samples used in CRC calculations       : Yes
Used interface                              : Native Win32 interface for Win NT & 2000

Used output format : Internal WAV Routines
Sample format      : 44.100 Hz; 16 Bit; Stereo


TOC of the extracted CD

     Track |   Start  |  Length  | Start sector | End sector 
    ---------------------------------------------------------
        1  |  0:00.00 |  4:01.07 |         0    |    18081   
        2  |  4:01.07 |  4:08.15 |     18082    |    36696   
        3  |  8:09.22 |  4:17.21 |     36697    |    55992   
        4  | 12:26.43 |  5:04.41 |     55993    |    78833   
        5  | 17:31.09 |  4:04.70 |     78834    |    97203   
        6  | 21:36.04 |  2:53.46 |     97204    |   110224   
        7  | 24:29.50 |  5:32.31 |    110225    |   135155   
        8  | 30:02.06 |  4:40.67 |    135156    |   156222   
        9  | 34:42.73 |  4:17.70 |    156223    |   175567   
       10  | 39:00.68 |  4:15.73 |    175568    |   194765   
       11  | 43:16.66 |  4:59.00 |    194766    |   217190   
       12  | 48:15.66 |  4:02.13 |    217191    |   235353   
       13  | 52:18.04 |  3:57.39 |    235354    |   253167   
       14  | 56:15.43 |  4:22.37 |    253168    |   272854   
       15  | 60:38.05 |  3:26.70 |    272855    |   288374   
       16  | 64:05.00 |  3:50.02 |    288375    |   305626   
       17  | 67:55.02 |  3:47.64 |    305627    |   322715   


Range status and errors

Selected range

     Filename C:\Users\Arturs\Desktop\Simply Red - Song Book 1985 - 2010 [Disc Two].wav

     Peak level 100.0 %
     Extraction speed 3.4 X
     Range quality 100.0 %
     Test CRC B1F6BFA1
     Copy CRC B1F6BFA1
     Copy OK

No errors occurred

 
AccurateRip summary
 
Track  1  accurately ripped (confidence 12)  [E7B0FE8E]  (AR v2)
Track  2  accurately ripped (confidence 12)  [5761F62B]  (AR v2)
Track  3  accurately ripped (confidence 12)  [EE7C70F6]  (AR v2)
Track  4  accurately ripped (confidence 12)  [96227EF3]  (AR v2)
Track  5  accurately ripped (confidence 12)  [DAA9E336]  (AR v2)
Track  6  accurately ripped (confidence 12)  [0CC2F968]  (AR v2)
Track  7  accurately ripped (confidence 12)  [DF185FED]  (AR v2)
Track  8  accurately ripped (confidence 12)  [805CCD52]  (AR v2)
Track  9  accurately ripped (confidence 12)  [9D8DA618]  (AR v2)
Track 10  accurately ripped (confidence 12)  [DD03A49E]  (AR v2)
Track 11  accurately ripped (confidence 12)  [5620EA10]  (AR v2)
Track 12  accurately ripped (confidence 12)  [42303AF4]  (AR v2)
Track 13  accurately ripped (confidence 12)  [45C2D8D7]  (AR v2)
Track 14  accurately ripped (confidence 12)  [D2AB5A4C]  (AR v2)
Track 15  accurately ripped (confidence 12)  [050231F9]  (AR v2)
Track 16  accurately ripped (confidence 12)  [1554151A]  (AR v2)
Track 17  accurately ripped (confidence 12)  [4263FB00]  (AR v2)
 
All tracks accurately ripped

End of status report

---- CUETools DB Plugin V2.1.6

[CTDB TOCID: YgQmTeEordRPHU6hfUrTieZeObg-] found
Submit result: YgQmTeEordRPHU6hfUrTieZeObg- has been confirmed
Track | CTDB Status
  1   | (33/33) Accurately ripped
  2   | (33/33) Accurately ripped
  3   | (33/33) Accurately ripped
  4   | (33/33) Accurately ripped
  5   | (33/33) Accurately ripped
  6   | (33/33) Accurately ripped
  7   | (33/33) Accurately ripped
  8   | (33/33) Accurately ripped
  9   | (33/33) Accurately ripped
 10   | (33/33) Accurately ripped
 11   | (33/33) Accurately ripped
 12   | (33/33) Accurately ripped
 13   | (33/33) Accurately ripped
 14   | (33/33) Accurately ripped
 15   | (33/33) Accurately ripped
 16   | (33/33) Accurately ripped
 17   | (33/33) Accurately ripped


==== Log checksum 66334E3EC23A00B1B985210269A68682050C221087DC9003F0D47CAABA617691 ====



Create a new paste based on this one


Comments: