[ create a new paste ] login | about

Link: http://codepad.org/wS2hqU7E    [ raw code | fork ]

Plain Text, pasted on May 3:
Exact Audio Copy V1.1 from 23. June 2015

EAC extraction logfile from 1. May 2017, 16:07

Paul McCartney & Elvis Costello / Flowers In The Dirt CD2

Used drive  : PLEXTOR BD-R  PX-B950SA   Adapter: 1  ID: 1

Read mode               : Secure
Utilize accurate stream : Yes
Defeat audio cache      : Yes
Make use of C2 pointers : No

Read offset correction                      : 6
Overread into Lead-In and Lead-Out          : No
Fill up missing offset samples with silence : Yes
Delete leading and trailing silent blocks   : No
Null samples used in CRC calculations       : Yes
Used interface                              : Native Win32 interface for Win NT & 2000

Used output format : Internal WAV Routines
Sample format      : 44.100 Hz; 16 Bit; Stereo


TOC of the extracted CD

     Track |   Start  |  Length  | Start sector | End sector 
    ---------------------------------------------------------
        1  |  0:00.00 |  3:58.03 |         0    |    17852   
        2  |  3:58.03 |  4:09.44 |     17853    |    36571   
        3  |  8:07.47 |  2:27.50 |     36572    |    47646   
        4  | 10:35.22 |  3:29.19 |     47647    |    63340   
        5  | 14:04.41 |  2:40.19 |     63341    |    75359   
        6  | 16:44.60 |  4:16.36 |     75360    |    94595   
        7  | 21:01.21 |  3:43.38 |     94596    |   111358   
        8  | 24:44.59 |  2:40.31 |    111359    |   123389   
        9  | 27:25.15 |  7:21.39 |    123390    |   156503   


Range status and errors

Selected range

     Filename C:\Paul McCartney\1989 Flowers In The Dirt (3CD + DVD Box Set Universal 2017)\CD2\Paul McCartney & Elvis Costello - Flowers In The Dirt CD2.wav

     Peak level 97.9 %
     Extraction speed 6.7 X
     Range quality 100.0 %
     Test CRC 77D5D11A
     Copy CRC 77D5D11A
     Copy OK

No errors occurred

 
AccurateRip summary
 
Track  1  accurately ripped (confidence 2)  [E54686FD]  (AR v2)
Track  2  accurately ripped (confidence 2)  [2598E9D8]  (AR v2)
Track  3  accurately ripped (confidence 2)  [62D3D6AF]  (AR v2)
Track  4  accurately ripped (confidence 2)  [5C3128BC]  (AR v2)
Track  5  accurately ripped (confidence 2)  [6C0E727A]  (AR v2)
Track  6  accurately ripped (confidence 2)  [300802F3]  (AR v2)
Track  7  accurately ripped (confidence 2)  [01EFEEA1]  (AR v2)
Track  8  accurately ripped (confidence 2)  [192E3F91]  (AR v2)
Track  9  accurately ripped (confidence 2)  [44E6D967]  (AR v2)
 
All tracks accurately ripped

End of status report

---- CUETools DB Plugin V2.1.6

[CTDB TOCID: tRIcb_7LMj2gQYWrcLhhPfm1EqM-] found
Submit result: tRIcb_7LMj2gQYWrcLhhPfm1EqM- has been confirmed
Track | CTDB Status
  1   | (28/28) Accurately ripped
  2   | (28/28) Accurately ripped
  3   | (28/28) Accurately ripped
  4   | (28/28) Accurately ripped
  5   | (28/28) Accurately ripped
  6   | (28/28) Accurately ripped
  7   | (28/28) Accurately ripped
  8   | (28/28) Accurately ripped
  9   | (28/28) Accurately ripped


==== Log checksum CB1BFC680E84C709F212DCF572E7B1E68BC2E4EF3077C1D16DCF23CB88564369 ====



Create a new paste based on this one


Comments: