[ create a new paste ] login | about

Link: http://codepad.org/wTtBj17F    [ raw code | fork ]

Plain Text, pasted on Jul 23:
foobar2000 1.3.9 / Dynamic Range Meter 1.1.1
log date: 2016-06-04 23:54:31

--------------------------------------------------------------------------------
Analyzed: Hespérion XXI / Orient - Occident (Hybrid SACD)
--------------------------------------------------------------------------------

DR         Peak         RMS     Duration Track
--------------------------------------------------------------------------------
DR12      -9.09 dB   -25.64 dB      4:40 01-Rast Murass'a
DR13      -5.80 dB   -25.50 dB      3:43 02-Ductia
DR15      -7.97 dB   -26.33 dB      3:56 03-A la una yo naci
DR14      -6.84 dB   -25.66 dB      2:40 04-Alba
DR13     -10.25 dB   -29.31 dB      4:33 05-Danse de l'âme
DR14     -11.06 dB   -27.01 dB      2:35 06-Istampita: La Manfredina
DR14      -9.43 dB   -25.79 dB      4:07 07-Laili Djan
DR14      -7.26 dB   -25.59 dB      8:21 08-Istampita: In Pro
DR12      -6.55 dB   -26.48 dB      3:04 09-Danza del viento
DR12      -9.27 dB   -26.33 dB      2:29 10-Saltarello
DR15     -12.35 dB   -32.02 dB      3:36 11-Chahamezrab   Dimitri Psonis (Santur)
DR15      -5.92 dB   -23.88 dB      1:51 12-Danza de las espadas
DR12     -11.16 dB   -28.91 dB      3:34 13-Berevsân Nikriz usüles
DR13      -6.45 dB   -24.23 dB      1:52 14-Saltarello
DR16     -12.38 dB   -32.99 dB      3:37 15-Solo Yaïr Dalal
DR14      -7.20 dB   -26.67 dB      2:46 16-Rotundellus
DR12      -9.69 dB   -26.72 dB      2:14 17-Rast Semâ' i
DR14      -7.67 dB   -27.07 dB      4:57 18-Istampita: Lamento di Tristano
DR15      -6.80 dB   -25.33 dB      5:07 19-Molâ Mamad Djânn
DR13      -7.91 dB   -24.26 dB      2:29 20-Saltarello Alfonso X el Sabio
DR13      -4.30 dB   -21.15 dB      3:45 21-Turna Der Makam Uzzäl Sakil
--------------------------------------------------------------------------------

Number of tracks:  21
Official DR value: DR14

Samplerate:        88200 Hz
Channels:          2
Bits per sample:   24
Bitrate:           2467 kbps
Codec:             FLAC
================================================================================




Create a new paste based on this one


Comments: