[ create a new paste ] login | about

Link: http://codepad.org/wV2jGP9I    [ raw code | fork ]

Plain Text, pasted on Dec 12:
Exact Audio Copy V1.0 beta 6 from 9. April 2015

EAC extraction logfile from 8. December 2018, 13:15

Paul McCartney and Wings / Red Rose Speedway CD2 - Bonus Audio

Used drive  : ATAPI   iHAS122   C   Adapter: 1  ID: 0

Read mode               : Secure
Utilize accurate stream : Yes
Defeat audio cache      : Yes
Make use of C2 pointers : No

Read offset correction                      : 6
Overread into Lead-In and Lead-Out          : No
Fill up missing offset samples with silence : Yes
Delete leading and trailing silent blocks   : No
Null samples used in CRC calculations       : Yes
Used interface                              : Native Win32 interface for Win NT & 2000

Used output format : Internal WAV Routines
Sample format      : 44.100 Hz; 16 Bit; Stereo


TOC of the extracted CD

     Track |   Start  |  Length  | Start sector | End sector 
    ---------------------------------------------------------
        1  |  0:00.00 |  3:34.51 |         0    |    16100   
        2  |  3:34.51 |  2:08.61 |     16101    |    25761   
        3  |  5:43.37 |  3:10.49 |     25762    |    40060   
        4  |  8:54.11 |  4:36.10 |     40061    |    60770   
        5  | 13:30.21 |  4:40.13 |     60771    |    81783   
        6  | 18:10.34 |  3:14.40 |     81784    |    96373   
        7  | 21:24.74 |  5:03.66 |     96374    |   119164   
        8  | 26:28.65 |  2:17.41 |    119165    |   129480   
        9  | 28:46.31 |  3:11.28 |    129481    |   143833   
       10  | 31:57.59 |  3:58.10 |    143834    |   161693   
       11  | 35:55.69 |  4:01.06 |    161694    |   179774   
       12  | 39:57.00 |  3:46.62 |    179775    |   196786   
       13  | 43:43.62 |  3:24.64 |    196787    |   212150   
       14  | 47:08.51 |  3:23.32 |    212151    |   227407   
       15  | 50:32.08 |  3:20.45 |    227408    |   242452   
       16  | 53:52.53 |  6:32.66 |    242453    |   271918   
       17  | 60:25.44 |  5:10.34 |    271919    |   295202   
       18  | 65:36.03 |  3:33.08 |    295203    |   311185   


Range status and errors

Selected range

     Filename C:\Paul McCartney and Wings - Red Rose Speedway CD2 - Bonus Audio.wav

     Peak level 97.7 %
     Extraction speed 8.9 X
     Range quality 100.0 %
     Test CRC 177E9CF4
     Copy CRC 177E9CF4
     Copy OK

No errors occurred

 
AccurateRip summary
 
Track  1  not present in database
Track  2  not present in database
Track  3  not present in database
Track  4  not present in database
Track  5  not present in database
Track  6  not present in database
Track  7  not present in database
Track  8  not present in database
Track  9  not present in database
Track 10  not present in database
Track 11  not present in database
Track 12  not present in database
Track 13  not present in database
Track 14  not present in database
Track 15  not present in database
Track 16  not present in database
Track 17  not present in database
Track 18  not present in database
 
None of the tracks are present in the AccurateRip database

End of status report

---- CUETools DB Plugin V2.1.6

[CTDB TOCID: rKrmR2WmcU.xrtswLxE_b8shzWU-] found
Submit result: rKrmR2WmcU.xrtswLxE_b8shzWU- has been confirmed
Track | CTDB Status
  1   | (12/12) Accurately ripped
  2   | (12/12) Accurately ripped
  3   | (12/12) Accurately ripped
  4   | (12/12) Accurately ripped
  5   | (11/12) Accurately ripped
  6   | (12/12) Accurately ripped
  7   | (12/12) Accurately ripped
  8   | (12/12) Accurately ripped
  9   | (12/12) Accurately ripped
 10   | (12/12) Accurately ripped
 11   | (12/12) Accurately ripped
 12   | (12/12) Accurately ripped
 13   | (12/12) Accurately ripped
 14   | (12/12) Accurately ripped
 15   | (12/12) Accurately ripped
 16   | (12/12) Accurately ripped
 17   | (12/12) Accurately ripped
 18   | (12/12) Accurately ripped


==== Log checksum 28AE7916EEA0BEB53E1D7F336EF6C1AB6B5E243FDD8D9D9FE9FE1A2EFB60412A ====



Create a new paste based on this one


Comments: