[ create a new paste ] login | about

Link: http://codepad.org/wWMSwWD0    [ raw code | fork ]

Plain Text, pasted on Jan 27:
Exact Audio Copy V0.99 prebeta 5 from 4. May 2009

EAC extraction logfile from 4. January 2010, 14:06

Various Artists / 12'' 80s Electro Pop (Disc 3)

Used drive  : HL-DT-STDVDRAM GH15F   Adapter: 8  ID: 0

Read mode               : Secure
Utilize accurate stream : Yes
Defeat audio cache      : Yes
Make use of C2 pointers : No

Read offset correction                      : 667
Overread into Lead-In and Lead-Out          : No
Fill up missing offset samples with silence : Yes
Delete leading and trailing silent blocks   : No
Null samples used in CRC calculations       : Yes
Used interface                              : Installed external ASPI interface
Gap handling                                : Appended to previous track

Used output format              : User Defined Encoder
Selected bitrate                : 128 kBit/s
Quality                         : High
Add ID3 tag                     : No
Command line compressor         : C:\Program Files (x86)\Exact Audio Copy\Flac\flac.exe
Additional command line options : -8 -V -T "Artist=%a" -T "Title=%t" -T "Album=%g" -T "Date=%y" -T "Tracknumber=%n" -T "Total Tracks=%x" -T "Genre=%m" -T "Comment=EAC V0.99 prebeta 5, Secure Mode, Test & Copy, AccurateRip, FLAC -8" %s


TOC of the extracted CD

     Track |   Start  |  Length  | Start sector | End sector 
    ---------------------------------------------------------
        1  |  0:00.00 |  8:28.22 |         0    |    38121   
        2  |  8:28.22 |  8:06.45 |     38122    |    74616   
        3  | 16:34.67 |  6:55.00 |     74617    |   105741   
        4  | 23:29.67 |  7:39.24 |    105742    |   140190   
        5  | 31:09.16 |  6:45.69 |    140191    |   170634   
        6  | 37:55.10 |  7:37.32 |    170635    |   204941   
        7  | 45:32.42 |  6:34.68 |    204942    |   234559   
        8  | 52:07.35 |  8:30.37 |    234560    |   272846   
        9  | 60:37.72 |  4:17.27 |    272847    |   292148   
       10  | 64:55.24 |  3:55.30 |    292149    |   309803   
       11  | 68:50.54 |  7:02.69 |    309804    |   341522   


Track  1

     Filename C:\Exact Audio Copy\01 - Soft Cell - Torch (Extended Version).wav

     Pre-gap length  0:00:02.00

     Peak level 96.3 %
     Track quality 100.0 %
     Test CRC 1BB9E36D
     Copy CRC 1BB9E36D
     Accurately ripped (confidence 2)  [FE2D394C]
     Copy OK

Track  2

     Filename C:\Exact Audio Copy\02 - The Cure - Why Can't I Be You (Extended Mix).wav

     Pre-gap length  0:00:00.25

     Peak level 100.0 %
     Track quality 100.0 %
     Test CRC F646FB36
     Copy CRC F646FB36
     Accurately ripped (confidence 2)  [99955836]
     Copy OK

Track  3

     Filename C:\Exact Audio Copy\03 - Visage - Pleasure Boys (Dance Mix).wav

     Pre-gap length  0:00:00.25

     Peak level 100.0 %
     Track quality 100.0 %
     Test CRC 9CDA1E4C
     Copy CRC 9CDA1E4C
     Accurately ripped (confidence 2)  [026CAFF4]
     Copy OK

Track  4

     Filename C:\Exact Audio Copy\04 - Art Of Noise - Close To The Edit (Extended Remix).wav

     Pre-gap length  0:00:00.25

     Peak level 100.0 %
     Track quality 100.0 %
     Test CRC 269B196B
     Copy CRC 269B196B
     Accurately ripped (confidence 2)  [62EE3191]
     Copy OK

Track  5

     Filename C:\Exact Audio Copy\05 - Associates - Club Country (12 Inch Remix).wav

     Pre-gap length  0:00:00.25

     Peak level 100.0 %
     Track quality 100.0 %
     Test CRC EA6A3F04
     Copy CRC EA6A3F04
     Accurately ripped (confidence 2)  [F2172193]
     Copy OK

Track  6

     Filename C:\Exact Audio Copy\06 - Propaganda - Duel (Bittersweet).wav

     Pre-gap length  0:00:00.24

     Peak level 100.0 %
     Track quality 100.0 %
     Test CRC FD86AD0D
     Copy CRC FD86AD0D
     Accurately ripped (confidence 2)  [6BC53907]
     Copy OK

Track  7

     Filename C:\Exact Audio Copy\07 - Trio - Da Da Da [I Don't Love You You Don't Love Me Aha Aha Aha].wav

     Pre-gap length  0:00:00.25

     Peak level 100.0 %
     Track quality 100.0 %
     Test CRC 5C5923AB
     Copy CRC 5C5923AB
     Accurately ripped (confidence 2)  [5ACF7502]
     Copy OK

Track  8

     Filename C:\Exact Audio Copy\08 - Sharpe & Numan - Change Your Mind (Extended Version).wav

     Pre-gap length  0:00:00.25

     Peak level 100.0 %
     Track quality 100.0 %
     Test CRC 2E3DFA4F
     Copy CRC 2E3DFA4F
     Accurately ripped (confidence 2)  [52EBAB2F]
     Copy OK

Track  9

     Filename C:\Exact Audio Copy\09 - Pete Shelley - Homosapien (Dance Version).wav

     Pre-gap length  0:00:00.25

     Peak level 100.0 %
     Track quality 99.9 %
     Test CRC 60AB1D05
     Copy CRC 60AB1D05
     Accurately ripped (confidence 2)  [F452AB97]
     Copy OK

Track 10

     Filename C:\Exact Audio Copy\10 - Laid Back - White Horse (US Edit).wav

     Pre-gap length  0:00:00.25

     Peak level 100.0 %
     Track quality 100.0 %
     Test CRC 4BE85874
     Copy CRC 4BE85874
     Accurately ripped (confidence 2)  [9769EED2]
     Copy OK

Track 11

     Filename C:\Exact Audio Copy\11 - Was (Not Was) - Wheel Me Out (Long Version).wav

     Pre-gap length  0:00:00.25

     Peak level 100.0 %
     Track quality 100.0 %
     Test CRC 9B35CE42
     Copy CRC 9B35CE42
     Accurately ripped (confidence 2)  [61E32430]
     Copy OK


All tracks accurately ripped

No errors occurred

End of status report



Create a new paste based on this one


Comments: