[ create a new paste ] login | about

Link: http://codepad.org/wWdQaOBG    [ raw code | fork ]

Plain Text, pasted on Dec 7:
Exact Audio Copy V0.99 prebeta 4 from 23. January 2008

EAC extraction logfile from 11. February 2011, 18:04

Neil Sedaka / Oh Carol & All The Early Classics

Used drive  : Optiarc DVD RW AD-5200S   Adapter: 2  ID: 0

Read mode               : Secure
Utilize accurate stream : Yes
Defeat audio cache      : Yes
Make use of C2 pointers : No

Read offset correction                      : 48
Overread into Lead-In and Lead-Out          : No
Fill up missing offset samples with silence : Yes
Delete leading and trailing silent blocks   : No
Null samples used in CRC calculations       : Yes
Used interface                              : Native Win32 interface for Win NT & 2000

Used output format : Internal WAV Routines
Sample format      : 44.100 Hz; 16 Bit; Stereo


TOC of the extracted CD

     Track |   Start  |  Length  | Start sector | End sector 
    ---------------------------------------------------------
        1  |  0:00.00 |  2:21.33 |         0    |    10607   
        2  |  2:21.33 |  1:52.28 |     10608    |    19035   
        3  |  4:13.61 |  2:31.14 |     19036    |    30374   
        4  |  6:45.00 |  2:32.64 |     30375    |    41838   
        5  |  9:17.64 |  2:26.38 |     41839    |    52826   
        6  | 11:44.27 |  1:55.74 |     52827    |    61525   
        7  | 13:40.26 |  2:24.60 |     61526    |    72385   
        8  | 16:05.11 |  2:26.45 |     72386    |    83380   
        9  | 18:31.56 |  2:09.39 |     83381    |    93094   
       10  | 20:41.20 |  2:09.45 |     93095    |   102814   
       11  | 22:50.65 |  2:16.60 |    102815    |   113074   
       12  | 25:07.50 |  2:48.52 |    113075    |   125726   
       13  | 27:56.27 |  2:34.44 |    125727    |   137320   
       14  | 30:30.71 |  2:19.38 |    137321    |   147783   
       15  | 32:50.34 |  2:20.50 |    147784    |   158333   
       16  | 35:11.09 |  2:14.56 |    158334    |   168439   
       17  | 37:25.65 |  2:16.11 |    168440    |   178650   
       18  | 39:42.01 |  2:23.54 |    178651    |   189429   
       19  | 42:05.55 |  2:43.25 |    189430    |   201679   
       20  | 44:49.05 |  2:44.04 |    201680    |   213983   
       21  | 47:33.09 |  2:53.73 |    213984    |   227031   
       22  | 50:27.07 |  2:39.29 |    227032    |   238985   
       23  | 53:06.36 |  2:39.68 |    238986    |   250978   
       24  | 55:46.29 |  3:03.74 |    250979    |   264777   


Range status and errors

Selected range

     Filename C:\Rock With Sedaka\CD1\Neil Sedaka - Oh Carol & All The Early Classics - D1.wav

     Peak level 94.3 %
     Range quality 100.0 %
     Copy CRC F463BCAE
     Copy OK

No errors occurred

End of status report



Create a new paste based on this one


Comments: