[ create a new paste ] login | about

Link: http://codepad.org/wgXpcCGh    [ raw code | fork ]

Plain Text, pasted on Jan 17:
foobar2000 1.5 / Dynamic Range Meter 1.1.1
log date: 2020-01-17 01:05:32

--------------------------------------------------------------------------------
Analyzed: Michael McDonald / If That's What It Takes
--------------------------------------------------------------------------------

DR         Peak         RMS     Duration Track
--------------------------------------------------------------------------------
DR15      -0.75 dB   -19.09 dB      4:54 01-Playin' By The Rules
DR17      -0.06 dB   -19.63 dB      3:39 02-I Keep Forgettin' (Every Time You're Near)
DR13      -1.69 dB   -17.98 dB      3:19 03-Love Lies
DR14      -1.26 dB   -17.89 dB      3:50 04-I Gotta Try
DR11      -9.98 dB   -27.03 dB      2:53 05-I Can Let Go Now
DR15      -0.19 dB   -19.48 dB      4:22 06-That's Why
DR14      -1.93 dB   -18.59 dB      4:15 07-If That's What It Takes
DR18      -0.05 dB   -20.58 dB      3:43 08-No Such Luck
DR15      -4.20 dB   -23.35 dB      4:11 09-Losin' End
DR16      -0.05 dB   -19.19 dB      4:39 10-Believe In It
--------------------------------------------------------------------------------

Number of tracks:  10
Official DR value: DR15

Samplerate:        96000 Hz
Channels:          2
Bits per sample:   24
Bitrate:           2823 kbps
Codec:             FLAC
================================================================================




Create a new paste based on this one


Comments: