[ create a new paste ] login | about

Link: http://codepad.org/wjOa6NPo    [ raw code | fork ]

Plain Text, pasted on Nov 23:
foobar2000 1.3.17 / Dynamic Range Meter 1.1.1
log date: 2018-11-22 19:32:54

--------------------------------------------------------------------------------
Analyzed: Various Artists / Timeless love
--------------------------------------------------------------------------------

DR         Peak         RMS     Duration Track
--------------------------------------------------------------------------------
DR9       -7.81 dB   -17.77 dB      4:18 01-Never Gonna Let You Go
DR9       -8.97 dB   -21.30 dB      4:10 02-Hello
DR10      -7.63 dB   -19.01 dB      4:18 03-The Lady In Red
DR10      -7.51 dB   -20.95 dB      3:55 04-Up Where We Belong
DR9       -7.72 dB   -19.87 dB      4:13 05-Do That To Me One More Time
DR11      -7.74 dB   -22.00 dB      3:49 06-Lady
DR9       -8.28 dB   -19.30 dB      6:01 07-I'm Not In Love
DR10      -6.83 dB   -19.63 dB      4:20 08-One Day In Your Life
DR12      -6.13 dB   -20.43 dB      3:10 09-You Are Everything
DR10      -7.51 dB   -19.65 dB      2:50 10-Laughter In The Rain
DR12      -6.57 dB   -23.15 dB      3:40 11-Three Times A Lady
DR9       -7.54 dB   -17.95 dB      2:54 12-My Cherie Amour
DR13      -5.57 dB   -21.08 dB      3:36 13-Baby Come Back
DR13      -6.31 dB   -21.60 dB      3:11 14-It's So Hard To Say Goodbye To Yesterday
DR12      -5.37 dB   -19.18 dB      5:43 15-Cherish
DR11      -6.31 dB   -19.29 dB      4:43 16-Baby I Love Your Way
DR9       -6.93 dB   -17.71 dB      3:41 17-I just Wanna Stop
DR12      -5.73 dB   -19.79 dB      4:22 18-Sweetest Smile
--------------------------------------------------------------------------------

Number of tracks:  18
Official DR value: DR11

Samplerate:        2822400 Hz / PCM Samplerate: 176400 Hz
Channels:          2
Bits per sample:   1
Bitrate:           5645 kbps
Codec:             DSD64
================================================================================




Create a new paste based on this one


Comments: