[ create a new paste ] login | about

Link: http://codepad.org/wm8rgZUG    [ raw code | fork ]

Plain Text, pasted on Apr 19:
Exact Audio Copy V1.3 from 2. September 2016

EAC extraction logfile from 10. January 2018, 0:26

Elvis Costello with Burt Bacharach / Painted From Memory (2017 MFSL)

Used drive  : PLEXTOR CD-R   PREMIUM   Adapter: 1  ID: 1

Read mode               : Secure
Utilize accurate stream : Yes
Defeat audio cache      : Yes
Make use of C2 pointers : No

Read offset correction                      : 30
Overread into Lead-In and Lead-Out          : Yes
Fill up missing offset samples with silence : Yes
Delete leading and trailing silent blocks   : No
Null samples used in CRC calculations       : Yes
Used interface                              : Native Win32 interface for Win NT & 2000
Gap handling                                : Appended to previous track

Used output format              : User Defined Encoder
Selected bitrate                : 768 kBit/s
Quality                         : High
Add ID3 tag                     : No
Command line compressor         : C:\Program Files (x86)\Exact Audio Copy\FLAC\FLAC.EXE
Additional command line options : -6 -e -p -V -T "ARTIST=%artist%" -T "TITLE=%title%" -T "ALBUM=%albumtitle%" -T "DATE=%year%" -T "TRACKNUMBER=%tracknr%" -T "GENRE=%genre%" -T "PERFORMER=%albuminterpret%" -T "COMPOSER=%composer%" %haslyrics%--tag-from-file=LYRICS="%lyricsfile%"%haslyrics% -T "ALBUMARTIST=%albumartist%" -T "DISCNUMBER=%cdnumber%" -T "TOTALDISCS=%totalcds%" -T "TOTALTRACKS=%numtracks%" -T "COMMENT=%comment%" %source% -o %dest%


TOC of the extracted CD

     Track |   Start  |  Length  | Start sector | End sector 
    ---------------------------------------------------------
        1  |  0:00.00 |  4:20.44 |         0    |    19543   
        2  |  4:20.44 |  4:35.71 |     19544    |    40239   
        3  |  8:56.40 |  2:48.23 |     40240    |    52862   
        4  | 11:44.63 |  5:11.00 |     52863    |    76187   
        5  | 16:55.63 |  4:43.01 |     76188    |    97413   
        6  | 21:38.64 |  3:29.43 |     97414    |   113131   
        7  | 25:08.32 |  4:20.31 |    113132    |   132662   
        8  | 29:28.63 |  4:18.00 |    132663    |   152012   
        9  | 33:46.63 |  4:16.61 |    152013    |   171273   
       10  | 38:03.49 |  4:11.35 |    171274    |   190133   
       11  | 42:15.09 |  4:10.14 |    190134    |   208897   
       12  | 46:25.23 |  6:12.52 |    208898    |   236849   


Track  1

     Filename C:\tmp\00_RIPS\01 - In The Darkest Place.wav

     Pre-gap length  0:00:02.00

     Peak level 84.0 %
     Extraction speed 7.8 X
     Track quality 99.9 %
     Test CRC ECBB50E7
     Copy CRC ECBB50E7
     Accurately ripped (confidence 3)  [5F13F4A3]  (AR v2)
     Copy OK

Track  2

     Filename C:\tmp\00_RIPS\02 - Toledo.wav

     Pre-gap length  0:00:02.77

     Peak level 82.0 %
     Extraction speed 9.7 X
     Track quality 100.0 %
     Test CRC 98103C81
     Copy CRC 98103C81
     Accurately ripped (confidence 3)  [17BAD2F8]  (AR v2)
     Copy OK

Track  3

     Filename C:\tmp\00_RIPS\03 - I Still Have That Other Girl.wav

     Pre-gap length  0:00:02.77

     Peak level 80.1 %
     Extraction speed 8.3 X
     Track quality 99.9 %
     Test CRC 4B6996DF
     Copy CRC 4B6996DF
     Accurately ripped (confidence 3)  [9F678E9C]  (AR v2)
     Copy OK

Track  4

     Filename C:\tmp\00_RIPS\04 - This House Is Empty Now.wav

     Pre-gap length  0:00:02.77

     Peak level 77.5 %
     Extraction speed 11.2 X
     Track quality 100.0 %
     Test CRC 604B8606
     Copy CRC 604B8606
     Accurately ripped (confidence 3)  [5B2EB19D]  (AR v2)
     Copy OK

Track  5

     Filename C:\tmp\00_RIPS\05 - Tears At The Birthday Party.wav

     Pre-gap length  0:00:01.77

     Peak level 91.4 %
     Extraction speed 11.9 X
     Track quality 100.0 %
     Test CRC D6B56BC0
     Copy CRC D6B56BC0
     Accurately ripped (confidence 3)  [F99A837F]  (AR v2)
     Copy OK

Track  6

     Filename C:\tmp\00_RIPS\06 - Such Unlikely Lovers.wav

     Peak level 83.1 %
     Extraction speed 12.3 X
     Track quality 100.0 %
     Test CRC 5FEBC120
     Copy CRC 5FEBC120
     Accurately ripped (confidence 3)  [1F5B674D]  (AR v2)
     Copy OK

Track  7

     Filename C:\tmp\00_RIPS\07 - My Thief.wav

     Peak level 96.2 %
     Extraction speed 13.0 X
     Track quality 100.0 %
     Test CRC F929C28D
     Copy CRC F929C28D
     Accurately ripped (confidence 3)  [6A9A737F]  (AR v2)
     Copy OK

Track  8

     Filename C:\tmp\00_RIPS\08 - The Long Division.wav

     Pre-gap length  0:00:01.64

     Peak level 77.0 %
     Extraction speed 13.5 X
     Track quality 100.0 %
     Test CRC 9192C957
     Copy CRC 9192C957
     Accurately ripped (confidence 3)  [266F83C3]  (AR v2)
     Copy OK

Track  9

     Filename C:\tmp\00_RIPS\09 - Painted From Memory.wav

     Pre-gap length  0:00:01.77

     Peak level 74.7 %
     Extraction speed 14.1 X
     Track quality 100.0 %
     Test CRC 97B6D214
     Copy CRC 97B6D214
     Accurately ripped (confidence 3)  [242C1963]  (AR v2)
     Copy OK

Track 10

     Filename C:\tmp\00_RIPS\10 - The Sweetest Punch.wav

     Peak level 97.2 %
     Extraction speed 14.6 X
     Track quality 100.0 %
     Test CRC B6B77FA0
     Copy CRC B6B77FA0
     Accurately ripped (confidence 3)  [E3862F9F]  (AR v2)
     Copy OK

Track 11

     Filename C:\tmp\00_RIPS\11 - What's Her Name Today.wav

     Pre-gap length  0:00:02.70

     Peak level 76.4 %
     Extraction speed 15.0 X
     Track quality 100.0 %
     Test CRC 14B2694E
     Copy CRC 14B2694E
     Accurately ripped (confidence 3)  [EB0503CC]  (AR v2)
     Copy OK

Track 12

     Filename C:\tmp\00_RIPS\12 - God Give Me Strength.wav

     Pre-gap length  0:00:03.77

     Peak level 96.8 %
     Extraction speed 16.5 X
     Track quality 100.0 %
     Test CRC A968BC41
     Copy CRC A968BC41
     Accurately ripped (confidence 3)  [BED8ADFB]  (AR v2)
     Copy OK


All tracks accurately ripped

No errors occurred

End of status report

---- CUETools DB Plugin V2.1.6

[CTDB TOCID: wJndwwdQehJndPIdNBYIneJDLdI-] found
Submit result: wJndwwdQehJndPIdNBYIneJDLdI- has been confirmed
Track | CTDB Status
  1   | (4/4) Accurately ripped
  2   | (4/4) Accurately ripped
  3   | (4/4) Accurately ripped
  4   | (4/4) Accurately ripped
  5   | (4/4) Accurately ripped
  6   | (4/4) Accurately ripped
  7   | (4/4) Accurately ripped
  8   | (4/4) Accurately ripped
  9   | (4/4) Accurately ripped
 10   | (4/4) Accurately ripped
 11   | (4/4) Accurately ripped
 12   | (4/4) Accurately ripped


==== Log checksum A67F34C31A70641F16BBC4B6D6A3C752985FA56092209C81CE8AFE9578FE821E ====



Create a new paste based on this one


Comments: