[ create a new paste ] login | about

Link: http://codepad.org/wmkx6DkV    [ raw code | fork ]

Plain Text, pasted on Jun 29:
[CUETools log; Date: 6/29/2017 3:01:56 PM; Version: 2.1.5]
[CTDB TOCID: v2LHgWL2uCJun3EdcJiAkSDEIfc-] found.
Track | CTDB Status
  1   | (181/182) Accurately ripped
  2   | (181/182) Accurately ripped
  3   | (181/182) Accurately ripped
  4   | (181/182) Accurately ripped
  5   | (182/182) Accurately ripped
  6   | (182/182) Accurately ripped
  7   | (182/182) Accurately ripped
  8   | (182/182) Accurately ripped
  9   | (182/182) Accurately ripped
 10   | (182/182) Accurately ripped
 11   | (182/182) Accurately ripped
 12   | (182/182) Accurately ripped
 13   | (181/182) Accurately ripped
 14   | (180/182) Accurately ripped
 15   | (181/182) Accurately ripped
 16   | (181/182) Accurately ripped
 17   | (181/182) Accurately ripped
 18   | (178/182) Accurately ripped
[AccurateRip ID: 0033d9c2-02b11395-05129412] found.
Track   [  CRC   |   V2   ] Status
 01     [8ff9d8dc|488889ed] (035+088/140) Accurately ripped
 02     [952b8861|93401034] (037+088/142) Accurately ripped
 03     [5d5b6e51|df9f0350] (037+087/141) Accurately ripped
 04     [e8fb3092|2fcd5ca2] (036+086/139) Accurately ripped
 05     [081a34ff|798e7788] (035+087/139) Accurately ripped
 06     [d51cb8b9|3d70ba2e] (035+086/138) Accurately ripped
 07     [0f243aa0|5708813b] (035+087/139) Accurately ripped
 08     [7b0da77f|48b6e330] (036+086/139) Accurately ripped
 09     [49ee4bf7|9ec597d4] (036+087/140) Accurately ripped
 10     [79493181|c162fd81] (036+087/140) Accurately ripped
 11     [c8a790a0|9fba1031] (036+086/139) Accurately ripped
 12     [75b69b34|92e0e971] (036+086/139) Accurately ripped
 13     [e75334b8|d0f05b84] (036+087/140) Accurately ripped
 14     [8f80b4e9|ae5973c9] (036+088/139) Accurately ripped
 15     [6cc14680|a4031926] (035+086/138) Accurately ripped
 16     [3e218e6d|a8d9db21] (036+087/140) Accurately ripped
 17     [3da80945|ce9796ce] (035+087/139) Accurately ripped
 18     [2f20ecd9|ae29b2a7] (035+087/139) Accurately ripped
Offsetted by -30:
 01     [74ece04a] (002/140) Accurately ripped
 02     [649ee671] (002/142) Accurately ripped
 03     [34ffd543] (002/141) Accurately ripped
 04     [ffbf2094] (002/139) Accurately ripped
 05     [74daad4f] (002/139) Accurately ripped
 06     [4d9a01d3] (002/138) Accurately ripped
 07     [19ee3a66] (002/139) Accurately ripped
 08     [6eac3e45] (002/139) Accurately ripped
 09     [76b40515] (002/140) Accurately ripped
 10     [11d32cf6] (002/140) Accurately ripped
 11     [66ab3851] (002/139) Accurately ripped
 12     [affbc034] (002/139) Accurately ripped
 13     [78cc268a] (002/140) Accurately ripped
 14     [5b8df1c8] (002/139) Accurately ripped
 15     [870d3379] (002/138) Accurately ripped
 16     [c7e0c19b] (002/140) Accurately ripped
 17     [db12f08b] (002/139) Accurately ripped
 18     [66f5e405] (002/139) Accurately ripped
Offsetted by 6:
 01     [fbc93dc6] (002/140) Accurately ripped
 02     [d2147591] (002/142) Accurately ripped
 03     [cbd42687] (002/141) Accurately ripped
 04     [b13a66f8] (002/139) Accurately ripped
 05     [f25a1cef] (002/139) Accurately ripped
 06     [89d076e7] (002/138) Accurately ripped
 07     [6c6ba112] (002/139) Accurately ripped
 08     [4a2a22f1] (002/139) Accurately ripped
 09     [742d26f1] (002/140) Accurately ripped
 10     [afd45c04] (002/140) Accurately ripped
 11     [a930d587] (002/139) Accurately ripped
 12     [36dbfa34] (002/139) Accurately ripped
 13     [fd6e378e] (002/140) Accurately ripped
 14     [38f99f2f] (002/139) Accurately ripped
 15     [01151712] (002/138) Accurately ripped
 16     [2294ea97] (002/140) Accurately ripped
 17     [eaf90e37] (002/139) Accurately ripped
 18     [bd8fee9d] (002/139) Accurately ripped
Offsetted by -110:
 01     [d774f41a] (000/140) No match (V2 was not tested)
 02     [8dd28bf1] (000/142) No match (V2 was not tested)
 03     [740b9273] (000/141) No match (V2 was not tested)
 04     [3c744b44] (000/139) No match (V2 was not tested)
 05     [418698cf] (000/139) No match (V2 was not tested)
 06     [3992c4c3] (000/138) No match (V2 was not tested)
 07     [52ea7f7d] (000/139) No match (V2 was not tested)
 08     [f072d01a] (000/139) No match (V2 was not tested)
 09     [ee189d65] (000/140) No match (V2 was not tested)
 10     [fc397b29] (000/140) No match (V2 was not tested)
 11     [bc01f7b6] (000/139) No match (V2 was not tested)
 12     [f6097834] (000/139) No match (V2 was not tested)
 13     [a76400ba] (000/140) No match (V2 was not tested)
 14     [1d012d25] (000/139) No match (V2 was not tested)
 15     [cd5753bc] (000/138) No match (V2 was not tested)
 16     [e1de9f6b] (000/140) No match (V2 was not tested)
 17     [7edaae9b] (000/139) No match (V2 was not tested)
 18     [fbd87725] (000/139) No match (V2 was not tested)
Offsetted by -71:
 01     [9439040b] (002/140) Accurately ripped
 02     [99bc91a9] (002/142) Accurately ripped
 03     [421c3fd2] (002/141) Accurately ripped
 04     [d20f2cdb] (002/139) Accurately ripped
 05     [b425fc67] (002/139) Accurately ripped
 06     [502318ee] (002/138) Accurately ripped
 07     [6365993b] (002/139) Accurately ripped
 08     [b8f4f2a6] (002/139) Accurately ripped
 09     [80b12cbe] (002/140) Accurately ripped
 10     [97ec47b9] (002/140) Accurately ripped
 11     [eb22b72b] (002/139) Accurately ripped
 12     [5d7c61b4] (002/139) Accurately ripped
 13     [b7139329] (002/140) Accurately ripped
 14     [ea931e8d] (000/139) No match (V2 was not tested)
 15     [117820d0] (002/138) Accurately ripped
 16     [2ecc767c] (002/140) Accurately ripped
 17     [e5694ec0] (002/139) Accurately ripped
 18     [99aa029f] (002/139) Accurately ripped
Offsetted by -54:
 01     [c5af4ca2] (000/140) No match (V2 was not tested)
 02     [70fb31b1] (000/142) No match (V2 was not tested)
 03     [7b1cf46b] (000/141) No match (V2 was not tested)
 04     [dec246fc] (000/139) No match (V2 was not tested)
 05     [cbdb0d8f] (000/139) No match (V2 was not tested)
 06     [7acb091b] (000/138) No match (V2 was not tested)
 07     [e8b13b6d] (000/139) No match (V2 was not tested)
 08     [3064507a] (000/139) No match (V2 was not tested)
 09     [cdb8992d] (000/140) No match (V2 was not tested)
 10     [21d1f2df] (000/140) No match (V2 was not tested)
 11     [e5eb24e8] (000/139) No match (V2 was not tested)
 12     [ab664434] (000/139) No match (V2 was not tested)
 13     [20601b32] (000/140) No match (V2 was not tested)
 14     [a0146065] (000/139) No match (V2 was not tested)
 15     [35baf05c] (000/138) No match (V2 was not tested)
 16     [361350f3] (000/140) No match (V2 was not tested)
 17     [25cedcc3] (000/139) No match (V2 was not tested)
 18     [2d39dcf5] (000/139) No match (V2 was not tested)
Offsetted by -18:
 01     [4c8baa1e] (000/140) No match (V2 was not tested)
 02     [de70c0d1] (000/142) No match (V2 was not tested)
 03     [11f145af] (000/141) No match (V2 was not tested)
 04     [903d8d60] (000/139) No match (V2 was not tested)
 05     [495a7d2f] (000/139) No match (V2 was not tested)
 06     [b7017e2f] (000/138) No match (V2 was not tested)
 07     [ce00074a] (000/139) No match (V2 was not tested)
 08     [0d663529] (000/139) No match (V2 was not tested)
 09     [cb31bb09] (000/140) No match (V2 was not tested)
 10     [201cd211] (000/140) No match (V2 was not tested)
 11     [2758c202] (000/139) No match (V2 was not tested)
 12     [32467e34] (000/139) No match (V2 was not tested)
 13     [a5022c36] (000/140) No match (V2 was not tested)
 14     [9315f617] (000/139) No match (V2 was not tested)
 15     [afc5d4ca] (000/138) No match (V2 was not tested)
 16     [90c779ef] (000/140) No match (V2 was not tested)
 17     [35b4fa6f] (000/139) No match (V2 was not tested)
 18     [83d3e78d] (000/139) No match (V2 was not tested)
Offsetted by -12:
 01     [b85b0f08] (000/140) No match (V2 was not tested)
 02     [1b59ae01] (000/142) No match (V2 was not tested)
 03     [8069fde5] (000/141) No match (V2 was not tested)
 04     [587cc3c6] (000/139) No match (V2 was not tested)
 05     [339a651f] (000/139) No match (V2 was not tested)
 06     [6bb53c5d] (000/138) No match (V2 was not tested)
 07     [f5876dbc] (000/139) No match (V2 was not tested)
 08     [dcaab09b] (000/139) No match (V2 was not tested)
 09     [f5709603] (000/140) No match (V2 was not tested)
 10     [57aa4c97] (000/140) No match (V2 was not tested)
 11     [07be06de] (000/139) No match (V2 was not tested)
 12     [f36bdd34] (000/139) No match (V2 was not tested)
 13     [bb1d2f0c] (000/140) No match (V2 was not tested)
 14     [3c8ee05d] (000/139) No match (V2 was not tested)
 15     [4419a55c] (000/138) No match (V2 was not tested)
 16     [753ad619] (000/140) No match (V2 was not tested)
 17     [e305ff61] (000/139) No match (V2 was not tested)
 18     [1242e951] (000/139) No match (V2 was not tested)

Track Peak [ CRC32  ] [W/O NULL] 
 --  100.0 [AAF98215] [5A3EDCC5]           
 01   86.5 [292E81D7] [A4A90BC2]           
 02   98.8 [40CB380A] [B9AEF1EE]           
 03   98.8 [D610D043] [6CDDE823]           
 04   98.8 [3F307968] [71A619B3]           
 05   98.8 [9DB29C9A] [5979E48C]           
 06  100.0 [B6C1EA9C] [57E0FB34]           
 07   98.8 [3A91CF37] [202B7E94]           
 08   98.8 [4BCCAF51] [42616E88]           
 09   98.8 [A53137D6] [6307311F]           
 10   98.8 [C4A2D255] [621177EC]           
 11  100.0 [AC4DF92A] [0E3C9578]           
 12   98.7 [333EC138] [9C67D4A1]           
 13   98.8 [DDCDD8EB] [C75CA490]           
 14   98.8 [19BB3456] [FCC0AFCD]           
 15   99.4 [D33AD572] [20ABB6F4]           
 16   87.3 [82148710] [76C1FBC0]           
 17   99.9 [DF05277E] [4767A18D]           
 18   98.8 [7C89382C] [16DC567F]           



Create a new paste based on this one


Comments: