[ create a new paste ] login | about

Link: http://codepad.org/woPtj7lG    [ raw code | fork ]

Plain Text, pasted on Dec 27:
foobar2000 1.6 / Dynamic Range Meter 1.1.1
log date: 2020-12-27 19:10:03

--------------------------------------------------------------------------------
Analyzed: JOHN DI MARTINO'S ROMANTIC JAZZ TRIO / The Beatles In Jazz
--------------------------------------------------------------------------------

DR         Peak         RMS     Duration Track
--------------------------------------------------------------------------------
DR8       -4.34 dB   -14.96 dB      4:27 01-The Fool On The Hill
DR9       -4.44 dB   -15.22 dB      4:01 02-Let It Be
DR10      -4.24 dB   -16.13 dB      4:27 03-Because
DR9       -4.22 dB   -14.61 dB      4:10 04-Fixing A Hole
DR10      -4.47 dB   -17.05 dB      4:10 05-In My Life
DR8       -4.37 dB   -13.83 dB      4:15 06-Norwegian Wood
DR9       -4.29 dB   -14.45 dB      4:48 07-Come Together
DR8       -4.31 dB   -14.21 dB      6:06 08-Penny Lane
DR8       -4.35 dB   -15.64 dB      3:17 09-Blackbird
DR8       -4.35 dB   -13.81 dB      4:05 10-Eleanor Rigby
DR9       -4.35 dB   -15.62 dB      4:42 11-Yesterday
DR8       -4.34 dB   -13.95 dB      5:48 12-Got To Get You Into My Life
DR9       -4.35 dB   -14.61 dB      4:54 13-Here, There And Everywhere
--------------------------------------------------------------------------------

Number of tracks:  13
Official DR value: DR9

Samplerate:        2822400 Hz / PCM Samplerate: 176400 Hz
Channels:          2
Bits per sample:   1
Bitrate:           5645 kbps
Codec:             DSD64
================================================================================




Create a new paste based on this one


Comments: