[ create a new paste ] login | about

Link: http://codepad.org/wsJ1U66v    [ raw code | fork ]

Plain Text, pasted on Jul 23:
foobar2000 1.3.10 / Dynamic Range Meter 1.1.1
log date: 2016-06-29 21:41:27

--------------------------------------------------------------------------------
Analyzed: Hesperion XXI & Jordi Savall / Orient - Occident II - Hommage à la Syrie (Hybrid SACD)
--------------------------------------------------------------------------------

DR         Peak         RMS     Duration Track
--------------------------------------------------------------------------------
DR12      -4.42 dB   -20.97 dB      2:38 01-Ahla Zahra
DR12     -10.01 dB   -25.21 dB      4:20 02-Samai maqam Bayati (Syrie)
DR8      -13.12 dB   -25.92 dB      2:09 03-Creire m'en fach
DR14      -3.28 dB   -21.95 dB      4:11 04-Ô Aube Ya fajr (Syrie)
DR12      -5.93 dB   -21.39 dB      3:29 05-Shaouia (Syrie)
DR15      -8.97 dB   -28.47 dB      3:28 06-Improvisation Oud
DR15      -3.64 dB   -22.09 dB      7:52 07-Mawal Sab'awi - 'Ala Al-'aqiqa - Beiny wa Beinak
DR12      -3.49 dB   -18.98 dB      4:16 08-Istampitta: isabella
DR13      -5.59 dB   -22.85 dB      4:11 09-Ce Brun Hal asmar (Syrie)
DR13      -3.50 dB   -22.82 dB      3:35 10-Trotto
DR14      -4.47 dB   -23.58 dB      3:48 11-Ya Mariam el bekr (Syrie)
DR14      -3.91 dB   -21.90 dB      3:58 12-Ghazal
DR14      -3.76 dB   -24.40 dB      4:38 13-Angoisse (Qalaq (Syrie)
DR12      -4.40 dB   -20.13 dB      3:43 14-Cantiga 41: Virgen, madre de nostro Sennor
DR13      -3.42 dB   -21.28 dB      9:00 15-Hija mia - Et dodim kala (Israël)
DR13      -3.17 dB   -22.98 dB      4:34 16-Una Pastora
DR13      -3.25 dB   -23.30 dB      5:08 17-A Damas (Syrie)
DR12     -12.58 dB   -31.54 dB      3:24 18-Improvisation Ney (Départ)
--------------------------------------------------------------------------------

Number of tracks:  18
Official DR value: DR13

Samplerate:        88200 Hz
Channels:          2
Bits per sample:   24
Bitrate:           2005 kbps
Codec:             FLAC
================================================================================




Create a new paste based on this one


Comments: