[ create a new paste ] login | about

Link: http://codepad.org/wuvy8gde    [ raw code | fork ]

Plain Text, pasted on May 8:
foobar2000 1.4.1 / Dynamic Range Meter 1.1.1
log date: 2019-05-07 23:18:06

--------------------------------------------------------------------------------
Analyzed: MILES DAVIS / LIVE - EVIL
--------------------------------------------------------------------------------

DR         Peak         RMS     Duration Track
--------------------------------------------------------------------------------
DR12      -0.22 dB   -15.77 dB     15:18 01-Sivad
DR9       -2.57 dB   -15.34 dB      3:17 02-Little Church
DR12      -0.01 dB   -15.59 dB      5:54 03-Gemini / Double Image
DR11      -1.40 dB   -14.60 dB     21:12 04-What I Say
DR10      -4.54 dB   -17.92 dB      4:03 05-Nem Um Talvez
--------------------------------------------------------------------------------

Number of tracks:  5
Official DR value: DR11

Samplerate:        88200 Hz
Channels:          2
Bits per sample:   24
Bitrate:           2551 kbps
Codec:             FLAC
================================================================================

foobar2000 1.4.1 / Dynamic Range Meter 1.1.1
log date: 2019-05-07 23:19:09

--------------------------------------------------------------------------------
Analyzed: MILES DAVIS / LIVE - EVIL
--------------------------------------------------------------------------------

DR         Peak         RMS     Duration Track
--------------------------------------------------------------------------------
DR9       -4.64 dB   -19.49 dB      2:18 01-Selim
DR12      -1.12 dB   -15.54 dB     23:28 02-Funky Tonk
DR12      -0.01 dB   -15.25 dB     26:29 03-Inamorata And Narration By Conrad Roberts
--------------------------------------------------------------------------------

Number of tracks:  3
Official DR value: DR11

Samplerate:        88200 Hz
Channels:          2
Bits per sample:   24
Bitrate:           2660 kbps
Codec:             FLAC
================================================================================




Create a new paste based on this one


Comments: