[ create a new paste ] login | about

Link: http://codepad.org/wvKzoTf8    [ raw code | fork ]

Plain Text, pasted on Nov 19:
foobar2000 1.3.17 / Dynamic Range Meter 1.1.1
log date: 2018-11-19 11:03:10

--------------------------------------------------------------------------------
Analyzed: The Beatles / The Beatles and Esher Demos  {2018 Vinyl Box)
--------------------------------------------------------------------------------

DR         Peak         RMS     Duration Track
--------------------------------------------------------------------------------
DR12      -1.95 dB   -15.72 dB      2:42 01-Back In The U.S.S.R.
DR13      -1.69 dB   -17.11 dB      3:56 02-Dear Prudence
DR12      -0.75 dB   -15.30 dB      2:18 03-Glass Onion
DR12      -1.70 dB   -15.24 dB      3:09 04-Ob-La-Di, Ob-La-Da
DR15      -1.85 dB   -19.50 dB      0:53 05-Wild Honey Pie
DR13      -0.85 dB   -16.22 dB      3:14 06-The Continuing Story Of Bungalow Bill
DR11      -1.07 dB   -15.01 dB      4:45 07-While My Guitar Gently Sleeps
DR13      -0.98 dB   -15.99 dB      2:43 08-Happiness Is A Warm Gun
DR14      -0.44 dB   -16.94 dB      2:29 09-Martha My Dear
DR12      -1.16 dB   -16.71 dB      2:03 10-I'm So Tired
DR13      -5.29 dB   -20.01 dB      2:19 11-Blackbird
DR12      -2.08 dB   -15.86 dB      2:04 12-Piggies
DR12      -1.74 dB   -16.71 dB      3:33 13-Rocky Racoon
DR12      -0.44 dB   -14.63 dB      3:51 14-Don't Pass Me By
DR11      -1.05 dB   -14.35 dB      1:41 15-Why Don't We Do It In The Road?
DR12      -1.75 dB   -16.85 dB      1:46 16-I Will
DR10      -4.95 dB   -17.18 dB      2:56 17-Julia
DR11      -1.62 dB   -14.24 dB      2:42 18-Birthday
DR11      -1.75 dB   -16.18 dB      4:01 19-Yer Blues
DR13      -4.57 dB   -20.98 dB      2:48 20-Mother Nature's Son
DR10      -1.68 dB   -14.31 dB      2:25 21-Everybody's Got Something To Hide Except Me And My Monkey
DR12      -1.91 dB   -15.79 dB      3:15 22-Sexy Sadie
DR11      -0.24 dB   -14.74 dB      4:30 23-Helter Skelter
DR11      -1.31 dB   -16.98 dB      3:05 24-Long, Long, Long
DR11      -0.91 dB   -14.73 dB      4:16 25-Revolution1
DR12      -2.02 dB   -17.61 dB      2:41 26-Honey Pie
DR12      -2.14 dB   -15.74 dB      2:54 27-Savoy Truffle
DR12      -2.27 dB   -17.54 dB      3:02 28-Cry Baby Cry
DR10      -6.56 dB   -21.03 dB      8:21 29-Revolution 9
DR10      -6.30 dB   -18.75 dB      3:16 30-Good Night
DR12      -2.01 dB   -15.40 dB      3:00 01-Back In The U.S.S.R. [Esher Demo]
DR12      -2.68 dB   -18.29 dB      4:47 02-Dear Prudence [Esher Demo]
DR12      -3.37 dB   -18.37 dB      1:56 03-Glass Onion [Esher Demo]
DR12      -0.21 dB   -15.19 dB      3:11 04-Ob-La-Di, Ob-La-Da [Esher Demo]
DR14      -1.03 dB   -18.29 dB      2:41 05-The Continuing Story Of Bungalow Bill [Esher Demo]
DR12      -2.70 dB   -18.82 dB      2:39 06-While My Guitar Gently Weeps [Esher Demo]
DR14      -2.90 dB   -20.42 dB      1:55 07-Happiness Is A Warm Gun [Esher Demo]
DR15      -2.07 dB   -20.74 dB      3:11 08-I'm So Tired [Esher Demo]
DR11      -3.60 dB   -17.64 dB      2:34 09-Blackbird [Esher Demo]
DR12      -3.46 dB   -18.06 dB      2:06 10-Piggies [Esher Demo]
DR11      -3.84 dB   -17.93 dB      2:44 11-Rocky Raccoon [Esher Demo]
DR12      -2.24 dB   -17.55 dB      3:56 12-Julia [Esher Demo]
DR15      -0.24 dB   -20.10 dB      3:31 13-Yer Blues [Esher Demo]
DR11      -1.26 dB   -16.89 dB      2:25 14-Mother Nature's Son [Esher Demo]
DR13      -1.93 dB   -17.81 dB      3:04 15-Everybody's Got Something To Hide Except Me And My Monkey [Esher Demo]
DR12      -2.74 dB   -18.34 dB      2:27 16-Sexy Sadie [Esher Demo]
DR14      -1.47 dB   -17.62 dB      4:07 17-Revolution [Esher Demo]
DR13      -1.85 dB   -16.58 dB      2:00 18-Honey Pie [Esher Demo]
DR13      -3.31 dB   -19.13 dB      2:28 19-Cry Baby Cry [Esher Demo]
DR15      -1.17 dB   -18.36 dB      3:45 20-Sour Milk Sea [Esher Demo]
DR11      -2.95 dB   -18.41 dB      2:37 21-Junk [Esher Demo]
DR12      -2.44 dB   -17.99 dB      2:38 22-Child Of Nature [Esher Demo]
DR10      -4.40 dB   -17.21 dB      2:17 23-Circles [Esher Demo]
DR12      -1.43 dB   -16.66 dB      2:06 24-Mean Mr Mustard [Esher Demo]
DR14      -1.91 dB   -17.67 dB      1:26 25-Polythene Pam [Esher Demo]
DR12      -2.22 dB   -18.91 dB      3:05 26-Not Guilty [Esher Demo]
DR13      -2.13 dB   -18.52 dB      2:43 27-What’s The New Mary Jane [Esher Demo]
--------------------------------------------------------------------------------

Number of tracks:  57
Official DR value: DR12

Samplerate:        44100 Hz
Channels:          2
Bits per sample:   16
Bitrate:           790 kbps
Codec:             FLAC
================================================================================




Create a new paste based on this one


Comments: