[ create a new paste ] login | about

Link: http://codepad.org/wxXswsDf    [ raw code | fork ]

Plain Text, pasted on Jun 20:
foobar2000 1.3.17 / Dynamic Range Meter 1.1.1
log date: 2018-06-19 21:16:34

--------------------------------------------------------------------------------
Analyzed: Kraftwerk / Minimum - Maximum
--------------------------------------------------------------------------------

DR         Peak         RMS     Duration Track
--------------------------------------------------------------------------------
DR13      -0.01 dB   -17.27 dB      7:57 01-Die Mensch Maschine
DR11      -1.33 dB   -16.00 dB      4:46 02-Planet Of Visions
DR12      -1.37 dB   -16.61 dB      4:22 03-Tour De France Etape 1
DR13      -1.02 dB   -18.31 dB      1:29 04-Chrono
DR12      -1.35 dB   -16.51 dB      4:49 05-Tour De France Etape 2
DR11      -1.36 dB   -16.05 dB      6:42 06-Vitamin
DR12      -1.36 dB   -15.84 dB      6:18 07-Tour De France
DR13      -1.36 dB   -17.50 dB      8:51 08-Autobahn
DR13      -1.29 dB   -15.78 dB      3:42 09-Das Model
DR13      -1.33 dB   -16.88 dB      5:59 10-Neon Lights
--------------------------------------------------------------------------------

Number of tracks:  10
Official DR value: DR12

Samplerate:        88200 Hz
Channels:          6
Bits per sample:   24
Bitrate:           6869 kbps
Codec:             FLAC
================================================================================


foobar2000 1.3.17 / Dynamic Range Meter 1.1.1
log date: 2018-06-19 21:18:17

--------------------------------------------------------------------------------
Analyzed: Kraftwerk / Minimum - Maximum
--------------------------------------------------------------------------------

DR         Peak         RMS     Duration Track
--------------------------------------------------------------------------------
DR12      -1.43 dB   -16.89 dB      7:44 01-Radioactivitat
DR14      -1.31 dB   -17.86 dB      3:20 02-Trans-Europa Express
DR12      -0.84 dB   -18.15 dB      1:42 03-Abzug
DR13      -0.87 dB   -17.58 dB      4:29 04-Metall Auf Metall
DR12      -1.35 dB   -17.47 dB      4:27 05-Numbers
DR11      -1.42 dB   -14.67 dB      2:56 06-Computerwelt
DR11      -0.75 dB   -16.70 dB      5:55 07-Home Computer
DR13      -1.49 dB   -17.25 dB      2:58 08-Taschenrechner
DR13      -1.45 dB   -15.85 dB      3:15 09-Dentaku
DR12      -0.96 dB   -16.74 dB      7:24 10-Die Roboter
DR14      -1.45 dB   -16.64 dB      4:41 11-Elektro Kardiogramm
DR13      -1.16 dB   -16.71 dB      7:14 12-Aero Dynamik
DR15      -0.01 dB   -17.68 dB      9:51 13-Musique Non Stop
--------------------------------------------------------------------------------

Number of tracks:  13
Official DR value: DR13

Samplerate:        88200 Hz
Channels:          6
Bits per sample:   24
Bitrate:           6929 kbps
Codec:             FLAC
================================================================================




Create a new paste based on this one


Comments: