[ create a new paste ] login | about

Link: http://codepad.org/wyQ24AoQ    [ raw code | fork ]

Plain Text, pasted on Aug 6:
foobar2000 1.3.17 / Dynamic Range Meter 1.1.1
log date: 2018-05-04 01:19:54

--------------------------------------------------------------------------------
Analyzed: Dave Wilczewski / Room in the Clouds
--------------------------------------------------------------------------------

DR         Peak         RMS     Duration Track
--------------------------------------------------------------------------------
DR12      -5.85 dB   -28.88 dB      5:49 01-Mio
DR12      -5.13 dB   -28.30 dB      7:23 02-Waynes World
DR12      -5.59 dB   -26.62 dB      5:35 03-April Fools
DR10      -6.75 dB   -27.73 dB      6:13 04-Munen-Musou
DR12      -5.81 dB   -26.82 dB      6:12 05-Elvin Jones
DR11      -3.93 dB   -26.38 dB      5:55 06-Fun for Kofi
DR10      -4.91 dB   -26.49 dB      6:20 07-Lament for B.G.
DR11      -4.83 dB   -26.46 dB      6:32 08-Gofry in Gdansk
DR12      -5.35 dB   -27.61 dB      4:05 09-Blues for Shep
DR11      -5.67 dB   -26.33 dB      8:19 10-Way Back When
DR11      -4.81 dB   -27.97 dB      8:14 11-Speedy
DR10      -5.96 dB   -25.18 dB      1:57 12-For a Smile
--------------------------------------------------------------------------------

Number of tracks:  12
Official DR value: DR11

Samplerate:        2822400 Hz / PCM Samplerate: 176400 Hz
Channels:          6
Bits per sample:   1
Bitrate:           16934 kbps
Codec:             DST64
================================================================================

--------------------------------------------------------------------------------
Analyzed: Dave Wilczewski / Room in the Clouds
--------------------------------------------------------------------------------

DR         Peak         RMS     Duration Track
--------------------------------------------------------------------------------
DR14      -6.37 dB   -23.71 dB      5:49 01-Mio
DR13      -6.49 dB   -23.12 dB      7:23 02-Waynes World
DR11      -6.65 dB   -21.26 dB      5:35 03-April Fools
DR12      -7.61 dB   -22.40 dB      6:13 04-Munen-Musou
DR12      -6.40 dB   -21.51 dB      6:12 05-Elvin Jones
DR11      -6.29 dB   -21.02 dB      5:55 06-Fun for Kofi
DR12      -5.79 dB   -21.25 dB      6:20 07-Lament for B.G.
DR12      -6.28 dB   -21.17 dB      6:32 08-Gofry in Gdansk
DR13      -6.33 dB   -22.33 dB      4:05 09-Blues for Shep
DR11      -6.45 dB   -21.09 dB      8:19 10-Way Back When
DR13      -6.31 dB   -22.67 dB      8:14 11-Speedy
DR11      -6.62 dB   -19.98 dB      1:57 12-For a Smile
--------------------------------------------------------------------------------

Number of tracks:  12
Official DR value: DR12

Samplerate:        2822400 Hz / PCM Samplerate: 176400 Hz
Channels:          2
Bits per sample:   1
Bitrate:           5645 kbps
Codec:             DST64
================================================================================




Create a new paste based on this one


Comments: