[ create a new paste ] login | about

Link: http://codepad.org/wyvBEzXa    [ raw code | fork ]

Plain Text, pasted on Aug 5:
Exact Audio Copy V0.99 prebeta 5 from 4. May 2009

Отчёт EAC об извлечении, выполненном 13. марта 2011, 21:39

Various / I Love Disco - Grand Prix 80's CD 1

Дисковод: PIONEER DVD-RW  DVR-107D   Adapter: 3  ID: 0

Режим чтения                 : Достоверность
Использование точного потока : Да
Отключение кэша аудио        : Да
Использование указателей C2  : Нет

Коррекция смещения при чтении                     : 48
Способность читать области Lead-in и Lead-out     : Нет
Заполнение пропущенных сэмплов тишиной            : Да
Удаление блоков с тишиной в начале и конце        : Нет
При вычислениях CRC использовались нулевые сэмплы : Да
Интерфейс                                         : Встроенный Win32-интерфейс для Win NT/2000

Выходной формат : Внутренние WAV-операции
Формат сэмплов  : 44.100 Гц; 16 бит; стерео


TOC извлечённого CD

     Трек |   Старт  | Длительность | Начальный сектор | Конечный сектор 
    ---------------------------------------------------------------------
       1  |  0:00.00 |   13:23.25   |           0      |      60249      
       2  | 13:23.25 |    5:59.74   |       60250      |      87248      
       3  | 19:23.24 |    8:15.74   |       87249      |     124447      
       4  | 27:39.23 |    8:41.40   |      124448      |     163562      
       5  | 36:20.63 |    8:01.74   |      163563      |     199711      
       6  | 44:22.62 |    6:29.73   |      199712      |     228959      
       7  | 50:52.60 |    5:41.10   |      228960      |     254544      
       8  | 56:33.70 |    4:35.09   |      254545      |     275178      
       9  | 61:09.04 |    5:12.74   |      275179      |     298652      
      10  | 66:22.03 |    6:27.35   |      298653      |     327712      
      11  | 72:49.38 |    6:12.32   |      327713      |     355644      


Характеристики диапазона извлечения и сообщения об ошибках

Выбранный диапазон

     Имя файла D:\All\Music\Various - I Love Disco - Grand Prix 80's\Various - I Love Disco - Grand Prix 80's CD 1\Various - I Love Disco - Grand Prix 80's CD 1.wav

     Пиковый уровень 96.8 %
     Качество диапазона 100.0 %
     CRC теста 34E75251
     CRC копии 34E75251
     Копирование... OK

Ошибок не произошло

 
AccurateRip: сводка
 
Трек  1  нет в базе данных
Трек  2  нет в базе данных
Трек  3  нет в базе данных
Трек  4  нет в базе данных
Трек  5  нет в базе данных
Трек  6  нет в базе данных
Трек  7  нет в базе данных
Трек  8  нет в базе данных
Трек  9  нет в базе данных
Трек 10  нет в базе данных
Трек 11  нет в базе данных
 
Ни одного трека нет в базе AccurateRip

Конец отчёта



Create a new paste based on this one


Comments: