[ create a new paste ] login | about

Link: http://codepad.org/x2nL3J3X    [ raw code | fork ]

Plain Text, pasted on Aug 3:
foobar2000 1.3.17 / Dynamic Range Meter 1.1.1
log date: 2018-08-01 12:31:03

--------------------------------------------------------------------------------
Analyzed: Bon Jovi / Bounce
--------------------------------------------------------------------------------

DR         Peak         RMS     Duration Track
--------------------------------------------------------------------------------
DR11      -4.90 dB   -17.91 dB      3:53 01-Undivided
DR12      -3.87 dB   -17.91 dB      3:00 02-Everyday
DR11      -4.88 dB   -17.74 dB      4:49 03-The Distance
DR12      -4.87 dB   -18.72 dB      4:54 04-Joey
DR11      -4.84 dB   -18.24 dB      3:30 05-Misunderstood
DR12      -4.97 dB   -19.66 dB      3:46 06-All About Lovin' You
DR11      -4.85 dB   -17.82 dB      3:54 07-Hook Me Up
DR12      -5.00 dB   -21.04 dB      5:50 08-Right Side Of Wrong
DR12      -4.97 dB   -19.04 dB      4:09 09-Love Me Back To Life
DR12      -4.98 dB   -21.09 dB      3:51 10-You Had Me From Hello
DR12      -4.82 dB   -18.48 dB      3:12 11-Bounce
DR13      -5.04 dB   -21.88 dB      4:20 12-Open All Night
--------------------------------------------------------------------------------

Number of tracks:  12
Official DR value: DR12

Samplerate:        2822400 Hz / PCM Samplerate: 176400 Hz
Channels:          6
Bits per sample:   1
Bitrate:           16934 kbps
Codec:             DST64
================================================================================

--------------------------------------------------------------------------------
Analyzed: Bon Jovi / Bounce
--------------------------------------------------------------------------------

DR         Peak         RMS     Duration Track
--------------------------------------------------------------------------------
DR10      -3.74 dB   -14.92 dB      3:54 01-Undivided
DR8       -5.68 dB   -14.73 dB      3:00 02-Everyday
DR11      -3.99 dB   -16.22 dB      4:48 03-The Distance
DR9       -4.06 dB   -15.54 dB      4:54 04-Joey
DR7       -5.66 dB   -14.16 dB      3:30 05-Misunderstood
DR10      -3.86 dB   -16.39 dB      3:46 06-All About Lovin' You
DR12      -2.41 dB   -16.73 dB      3:54 07-Hook Me Up
DR11      -3.83 dB   -17.88 dB      5:50 08-Right Side Of Wrong
DR12      -3.67 dB   -17.60 dB      4:10 09-Love Me Back To Life
DR11      -4.57 dB   -18.44 dB      3:50 10-You Had Me From Hello
DR11      -3.56 dB   -16.28 dB      3:13 11-Bounce
DR12      -3.62 dB   -18.92 dB      4:22 12-Open All Night
--------------------------------------------------------------------------------

Number of tracks:  12
Official DR value: DR10

Samplerate:        2822400 Hz / PCM Samplerate: 176400 Hz
Channels:          2
Bits per sample:   1
Bitrate:           5645 kbps
Codec:             DST64
================================================================================




Create a new paste based on this one


Comments: