[ create a new paste ] login | about

Link: http://codepad.org/x7eGrnCH    [ raw code | fork ]

Plain Text, pasted on Mar 13:
foobar2000 1.5 / Dynamic Range Meter 1.1.1
log date: 2020-03-13 19:12:21

--------------------------------------------------------------------------------
Analyzed: The Band / Music From Big Pink
--------------------------------------------------------------------------------

DR         Peak         RMS     Duration Track
--------------------------------------------------------------------------------
DR14      -0.06 dB   -17.55 dB      5:19 01-Tears Of Rage
DR14      -0.48 dB   -18.23 dB      3:18 02-To Kingdom Come
DR13      -0.43 dB   -16.41 dB      3:30 03-In A Station
DR12      -1.41 dB   -17.04 dB      2:55 04-Caledonia Mission
DR15      -0.99 dB   -18.85 dB      4:33 05-The Weight
DR14      -1.59 dB   -18.30 dB      3:02 06-We Can Talk
DR13      -0.05 dB   -16.33 dB      3:01 07-Long Black Veil
DR15      -0.22 dB   -18.27 dB      5:13 08-Chest Fever
DR11      -2.15 dB   -16.89 dB      4:00 09-Lonesome Suzie
DR13      -2.72 dB   -18.27 dB      3:10 10-This Wheels On Fire
DR13      -3.08 dB   -18.80 dB      3:12 11-I Shall Be Released
--------------------------------------------------------------------------------

Number of tracks:  11
Official DR value: DR13

Samplerate:        44100 Hz
Channels:          2
Bits per sample:   16
Bitrate:           750 kbps
Codec:             FLAC
================================================================================




Create a new paste based on this one


Comments: