[ create a new paste ] login | about

Link: http://codepad.org/xGrshkmd    [ raw code | fork ]

Plain Text, pasted on Nov 11:
[CUETools log; Date: 11/10/2016 9:22:40 PM; Version: 2.1.5]
[CTDB TOCID: 4wBiTqZE2i1sx56kt0a2q5AdSKw-] found.
Track | CTDB Status
  1   | (6/6) Accurately ripped
  2   | (6/6) Accurately ripped
  3   | (6/6) Accurately ripped
  4   | (6/6) Accurately ripped
  5   | (6/6) Accurately ripped
  6   | (6/6) Accurately ripped
  7   | (6/6) Accurately ripped
  8   | (5/6) Accurately ripped
  9   | (6/6) Accurately ripped
 10   | (6/6) Accurately ripped
 11   | (6/6) Accurately ripped
 12   | (6/6) Accurately ripped
 13   | (6/6) Accurately ripped
[AccurateRip ID: 00120512-00b4d6f9-a108af0d] found.
Track   [  CRC   |   V2   ] Status
 01     [9ea06f64|ff72aa4a] (08+08/16) Accurately ripped
 02     [c164f819|f1316cc6] (08+08/16) Accurately ripped
 03     [4d1b3adf|7a66cc19] (08+08/16) Accurately ripped
 04     [b38a762d|f7f64668] (08+08/16) Accurately ripped
 05     [82e5bf6b|22b3dbab] (08+08/16) Accurately ripped
 06     [401868e1|9c09df63] (08+08/16) Accurately ripped
 07     [b6759d12|c77f5eda] (08+08/16) Accurately ripped
 08     [6d931746|dfc50fe9] (08+08/16) Accurately ripped
 09     [bca3b27f|2b1e3e77] (08+08/16) Accurately ripped
 10     [debe376f|3e07256b] (08+08/16) Accurately ripped
 11     [eea8ea2c|2da7597a] (08+08/16) Accurately ripped
 12     [81460650|e6a7f125] (08+08/16) Accurately ripped
 13     [7c12a4af|b79a9ee5] (08+08/16) Accurately ripped

Track Peak [ CRC32  ] [W/O NULL] 
 --  100.0 [5657A109] [460D9673]           
 01   86.4 [BACBC499] [70AAD9B5]           
 02   91.2 [ED0BA0F7] [7ECAB597]           
 03   91.3 [F1C7EC05] [C161D9C9]           
 04   82.3 [A5856828] [3E719E87]           
 05   97.9 [EF8DD8E8] [743F713E]           
 06   97.6 [64CFD8FA] [5823CAE1]           
 07  100.0 [D321C0CF] [3C49BB36]           
 08   89.0 [1718EF0D] [3EBCFE8B]           
 09   71.3 [0B569990] [363D6373]           
 10   79.2 [210C0207] [090AF9EE]           
 11   98.9 [B4AD08D9] [DAE020C2]           
 12   88.6 [274F9974] [C73E9227]           
 13  100.0 [B5FE7C7D] [21D70B7B]           



Create a new paste based on this one


Comments: