[ create a new paste ] login | about

Link: http://codepad.org/xKZcgLCh    [ raw code | fork ]

Plain Text, pasted on Feb 15:
foobar2000 1.3.17 / Dynamic Range Meter 1.1.1
log date: 2018-02-14 19:08:27

--------------------------------------------------------------------------------
Analyzed: Peter, Paul And Mary / In The Wind AF
--------------------------------------------------------------------------------

DR         Peak         RMS     Duration Track
--------------------------------------------------------------------------------
DR12      -1.53 dB   -16.49 dB      2:32 01-Very Last Day
DR10      -7.69 dB   -20.65 dB      2:22 02-Hush-A-Bye
DR11      -1.67 dB   -15.30 dB      4:38 03-Long Chain On
DR13      -0.82 dB   -16.95 dB      3:40 04-Rocky Road
DR10      -1.67 dB   -14.46 dB      2:58 05-Tell It On The Mountain
DR12      -1.82 dB   -16.94 dB      4:11 06-Polly Von
DR12      -2.91 dB   -17.87 dB      3:13 07-Stewball
DR12      -0.16 dB   -17.84 dB      3:19 08-All My Trials
DR11      -0.55 dB   -17.12 dB      3:16 09-Don't Think Twice, It's Alright
DR11      -1.21 dB   -17.24 dB      2:46 10-Freight Train
DR10      -0.47 dB   -14.74 dB      2:06 11-Quit Your Low Down Ways
DR12      -0.38 dB   -16.11 dB      2:57 12-Blowin' In The Wind
--------------------------------------------------------------------------------

Number of tracks:  12
Official DR value: DR11

Samplerate:        44100 Hz
Channels:          2
Bits per sample:   16
Bitrate:           788 kbps
Codec:             FLAC
================================================================================




Create a new paste based on this one


Comments: