[ create a new paste ] login | about

Link: http://codepad.org/xLMjmzHp    [ raw code | fork ]

Plain Text, pasted on Nov 20:
[CUETools log; Date: 11/19/2018 1:59:03 PM; Version: 2.1.5]
[CTDB TOCID: futYjfm0lM3814Op7uLErSk9lVc-] found.
Track | CTDB Status
  1   | (19/19) Accurately ripped
  2   | (19/19) Accurately ripped
  3   | (19/19) Accurately ripped
  4   | (19/19) Accurately ripped
  5   | (19/19) Accurately ripped
  6   | (19/19) Accurately ripped
  7   | (19/19) Accurately ripped
  8   | (19/19) Accurately ripped
  9   | (19/19) Accurately ripped
 10   | (19/19) Accurately ripped
 11   | (19/19) Accurately ripped
 12   | (19/19) Accurately ripped
 13   | (19/19) Accurately ripped
 14   | (19/19) Accurately ripped
 15   | (19/19) Accurately ripped
 16   | (19/19) Accurately ripped
 17   | (19/19) Accurately ripped
 18   | (19/19) Accurately ripped
 19   | (19/19) Accurately ripped
 20   | (19/19) Accurately ripped
 21   | (19/19) Accurately ripped
 22   | (19/19) Accurately ripped
 23   | (19/19) Accurately ripped
 24   | (19/19) Accurately ripped
 25   | (19/19) Accurately ripped
 26   | (19/19) Accurately ripped
 27   | (19/19) Accurately ripped
 28   | (19/19) Accurately ripped
 29   | (19/19) Accurately ripped
[AccurateRip ID: 0052244c-069addab-b412841d] found.
Track   [  CRC   |   V2   ] Status
 01     [563ae671|fd4c0492] (0+4/4) Accurately ripped
 02     [4ac436b5|09ec4787] (0+4/4) Accurately ripped
 03     [9c67fb34|a61ef3ff] (0+4/4) Accurately ripped
 04     [e5e711df|9f039edd] (0+4/4) Accurately ripped
 05     [28e2aef8|dcf2876f] (0+4/4) Accurately ripped
 06     [82a0c18f|458200a3] (0+4/4) Accurately ripped
 07     [95a18708|15574afb] (0+4/4) Accurately ripped
 08     [07791ac0|36322ccb] (0+4/4) Accurately ripped
 09     [93f29dd5|40939f03] (0+4/4) Accurately ripped
 10     [6b318e97|1edbbfd9] (0+4/4) Accurately ripped
 11     [f31bd087|efdc45e0] (0+4/4) Accurately ripped
 12     [fec2e5b7|1c04c34e] (0+4/4) Accurately ripped
 13     [acfd23d8|ec2e68a2] (0+4/4) Accurately ripped
 14     [56d77cb1|05b6da95] (0+4/4) Accurately ripped
 15     [db144932|d45973ea] (0+4/4) Accurately ripped
 16     [75157f6c|4beaa451] (0+4/4) Accurately ripped
 17     [d23f6daa|28a145fc] (0+4/4) Accurately ripped
 18     [740e40ed|82fcea09] (0+4/4) Accurately ripped
 19     [dfd8ae16|2e251b97] (0+4/4) Accurately ripped
 20     [b6725ace|bf37b2db] (0+4/4) Accurately ripped
 21     [38b18b76|66df7615] (0+4/4) Accurately ripped
 22     [eac5edcc|f89f5243] (0+4/4) Accurately ripped
 23     [c22cbb2d|65d10918] (0+4/4) Accurately ripped
 24     [497c4317|6dc1a580] (0+4/4) Accurately ripped
 25     [2a14bc27|0a6c3b26] (0+4/4) Accurately ripped
 26     [772be756|84e44db5] (0+4/4) Accurately ripped
 27     [69b0ea2e|23cf905e] (0+4/4) Accurately ripped
 28     [1e01d5bd|0cf1ef74] (0+4/4) Accurately ripped
 29     [9a8e0b26|c700d18f] (0+4/4) Accurately ripped

Track Peak [ CRC32  ] [W/O NULL] [  LOG   ]
 --  100.0 [5ED6D862] [2252ECF2]   CRC32   
 01   69.1 [C5665765] [6BE0FC6A]           
 02   81.3 [FD35E232] [80829459]           
 03   91.1 [864D6D25] [B48F2C62]           
 04   86.8 [F635AF83] [A0812E4D]           
 05  100.0 [11E0AD3C] [775C6181]           
 06   83.4 [FA3778E9] [38B56815]           
 07   74.7 [2C364CC7] [747AFADB]           
 08   84.1 [55180DB0] [4E5863CE]           
 09   80.1 [3065E8F1] [42624721]           
 10   83.3 [609890C6] [6A2F066F]           
 11   81.6 [1D0D6B90] [38554B8C]           
 12   85.3 [2DA96F1A] [BBAC65DB]           
 13   88.3 [7B714A04] [E652F2DE]           
 14   98.0 [939E76B0] [A686314D]           
 15  100.0 [366D4DE7] [603FD0E5]           
 16   88.0 [55FBDE7B] [BC14F967]           
 17   95.9 [865B3903] [9C7A8E73]           
 18   72.8 [7824550E] [1EF7B997]           
 19   82.3 [36ED3629] [58ABA151]           
 20   86.4 [E838E186] [BD961136]           
 21   82.3 [797DC5D9] [9708B1F8]           
 22   82.0 [4223B87D] [ADB614D7]           
 23   76.9 [8CA74769] [7E7622A1]           
 24   66.3 [290BDCE0] [51B8024E]           
 25   68.0 [41D74446] [4794D6AF]           
 26   86.1 [380CB164] [10D8B51B]           
 27   86.7 [B75013CC] [2B5E7CE5]           
 28   85.6 [6C165966] [44207128]           
 29   86.8 [FB7DCA03] [D5090837]           



Create a new paste based on this one


Comments: