[ create a new paste ] login | about

Link: http://codepad.org/xNkqRO8Y    [ raw code | fork ]

Plain Text, pasted on Dec 20:
foobar2000 1.5 / Dynamic Range Meter 1.1.1
log date: 2019-12-20 20:09:58

--------------------------------------------------------------------------------
Analyzed: Percy Faith / New Thing & Black Magic Woman
--------------------------------------------------------------------------------

DR         Peak         RMS     Duration Track
--------------------------------------------------------------------------------
DR8       -7.08 dB   -24.99 dB      5:24 01-Hill Where the Lord Hides 
DR9       -7.12 dB   -27.75 dB      2:42 02-Washington Square  
DR8       -8.84 dB   -25.99 dB      2:33 03-Serpico  
DR7      -10.58 dB   -27.86 dB      3:22 04-Stranger on the Shore  
DR8       -7.60 dB   -24.31 dB      2:45 05-Land of a Thousand Dances  
DR8       -9.53 dB   -29.55 dB      3:56 06-Euterpe 
DR8       -8.05 dB   -27.13 dB      3:16 07-The Way We Were  
DR8       -6.94 dB   -23.46 dB      2:32 08-The Pelican Dance  
DR8       -8.10 dB   -25.48 dB      2:35 09-Eres Tu  Touch the Wind
DR8       -7.30 dB   -25.41 dB      3:05 10-Skybird 
DR8       -9.42 dB   -26.75 dB      4:02 11-Angelica  
DR7       -8.25 dB   -24.72 dB      3:32 12-Black Magic Woman   
DR8       -9.48 dB   -27.43 dB      3:16 13-Sun King   
DR8       -8.81 dB   -25.56 dB      2:35 14-Big Yellow Taxi   
DR7      -11.22 dB   -27.75 dB      2:54 15- If   
DR7       -8.31 dB   -25.10 dB      3:23 16-Reza Rayza  
DR7       -9.17 dB   -26.40 dB      3:40 17-The Wailing of the Willow  
DR7       -8.74 dB   -25.51 dB      3:18 18-Viva Tirado   
DR8       -9.03 dB   -24.59 dB      3:03 19-Oye Como Va   
DR7      -10.42 dB   -26.44 dB      3:07 20-Wave   
DR7       -9.68 dB   -25.25 dB      3:05 21-Never Can Say Goodbye  
DR8       -8.53 dB   -26.47 dB      3:39 22-Tres
--------------------------------------------------------------------------------

Number of tracks:  22
Official DR value: DR8

Samplerate:        2822400 Hz / PCM Samplerate: 44100 Hz
Channels:          6
Bits per sample:   1
Bitrate:           16934 kbps
Codec:             DST64
================================================================================

--------------------------------------------------------------------------------
Analyzed: Percy Faith / New Thing & Black Magic Woman
--------------------------------------------------------------------------------

DR         Peak         RMS     Duration Track
--------------------------------------------------------------------------------
DR11      -8.39 dB   -21.91 dB      5:24 01-Hill Where the Lord Hides 
DR12      -8.54 dB   -22.76 dB      2:42 02-Washington Square  
DR11      -8.94 dB   -22.47 dB      2:33 03-Serpico  
DR10     -10.16 dB   -22.95 dB      3:22 04-Stranger on the Shore  
DR11      -7.90 dB   -21.53 dB      2:45 05-Land of a Thousand Dances  
DR9       -9.86 dB   -23.65 dB      3:56 06-Euterpe 
DR10     -10.02 dB   -23.92 dB      3:16 07-The Way We Were  
DR11      -7.77 dB   -20.41 dB      2:32 08-The Pelican Dance  
DR9       -9.97 dB   -21.80 dB      2:35 09-Eres Tu  Touch the Wind
DR10      -8.34 dB   -21.66 dB      3:05 10-Skybird 
DR9      -10.38 dB   -22.82 dB      4:02 11-Angelica  
DR11      -9.34 dB   -22.69 dB      3:32 12-Black Magic Woman   
DR11      -8.47 dB   -24.83 dB      3:16 13-Sun King   
DR12      -8.73 dB   -23.85 dB      2:35 14-Big Yellow Taxi   
DR9      -11.23 dB   -23.94 dB      2:54 15- If   
DR11      -8.85 dB   -22.71 dB      3:23 16-Reza Rayza  
DR11      -9.50 dB   -24.23 dB      3:42 17-The Wailing of the Willow  
DR11      -9.66 dB   -22.92 dB      3:18 18-Viva Tirado   
DR11      -9.84 dB   -23.05 dB      3:03 19-Oye Como Va   
DR10      -9.61 dB   -24.39 dB      3:07 20-Wave   
DR11      -9.65 dB   -22.81 dB      3:05 21-Never Can Say Goodbye  
DR11      -9.40 dB   -24.09 dB      3:39 22-Tres
--------------------------------------------------------------------------------

Number of tracks:  22
Official DR value: DR11

Samplerate:        2822400 Hz / PCM Samplerate: 44100 Hz
Channels:          2
Bits per sample:   1
Bitrate:           5645 kbps
Codec:             DST64
================================================================================




Create a new paste based on this one


Comments: