[ create a new paste ] login | about

Link: http://codepad.org/xQamDViP    [ raw code | fork ]

Plain Text, pasted on Dec 28:
foobar2000 1.3.8 / Dynamic Range Meter 1.1.1
log date: 2016-10-22 18:32:56

--------------------------------------------------------------------------------
Analyzed: The Rolling Stones / Between the Buttons (U.K.)
--------------------------------------------------------------------------------

DR         Peak         RMS     Duration Track
--------------------------------------------------------------------------------
DR10       0.00 dB   -11.75 dB      2:18 01-Yesterday's Papers
DR10       0.00 dB   -11.43 dB      3:20 02-My Obsession
DR11      -0.16 dB   -14.36 dB      3:27 03-Back Street Girl
DR10       0.00 dB   -12.30 dB      2:13 04-Connection
DR11      -0.10 dB   -12.77 dB      2:44 05-She Smiled Sweetly
DR9        0.00 dB   -11.38 dB      4:16 06-Cool, Calm & Collected
DR12      -0.04 dB   -13.14 dB      2:17 07-All Sold Out
DR9        0.00 dB   -10.81 dB      3:17 08-Please Go Home
DR10       0.00 dB   -12.43 dB      3:53 09-Who's Been Sleeping Here?
DR10      -0.03 dB   -11.99 dB      3:17 10-Complicated
DR10      -0.08 dB   -11.78 dB      2:49 11-Miss Amanda Jones
DR9        0.00 dB   -11.40 dB      4:54 12-Something Happened To Me Yesterday
--------------------------------------------------------------------------------

Number of tracks:  12
Official DR value: DR10

Samplerate:        192000 Hz
Channels:          2
Bits per sample:   24
Bitrate:           3407 kbps
Codec:             FLAC
================================================================================




Create a new paste based on this one


Comments: