[ create a new paste ] login | about

Link: http://codepad.org/xU05gQEG    [ raw code | fork ]

Plain Text, pasted on May 8:
foobar2000 1.4.1 / Dynamic Range Meter 1.1.1
log date: 2019-05-07 23:08:50

--------------------------------------------------------------------------------
Analyzed: MILES DAVIS / MILES AHEAD
--------------------------------------------------------------------------------

DR         Peak         RMS     Duration Track
--------------------------------------------------------------------------------
DR16      -1.53 dB   -22.00 dB      3:28 01-SPRINGSVILLE
DR12      -5.59 dB   -25.51 dB      3:55 02-THE MAIDS OF CADIZ
DR16      -0.12 dB   -22.74 dB      3:32 03-THE DUKE
DR16      -0.85 dB   -25.29 dB      4:31 04-MY SHIP
DR16      -0.01 dB   -23.93 dB      3:32 05-MILES AHEAD
DR15      -1.54 dB   -23.32 dB      5:19 06-BLUES FOR PABLO
DR17      -2.85 dB   -23.01 dB      4:35 07-NEW RHUMBA
DR14      -9.20 dB   -28.65 dB      2:41 08-THE MEANING OF THE BLUES
DR14      -6.05 dB   -27.13 dB      2:25 09-LAMENT
DR15      -2.08 dB   -24.13 dB      3:03 10-I DON'T WANNA BE KISSED (BY ANYONE BUT YOU)
--------------------------------------------------------------------------------

Number of tracks:  10
Official DR value: DR15

Samplerate:        88200 Hz
Channels:          2
Bits per sample:   24
Bitrate:           2603 kbps
Codec:             FLAC
================================================================================




Create a new paste based on this one


Comments: