[ create a new paste ] login | about

Link: http://codepad.org/xUFysDnf    [ raw code | fork ]

Plain Text, pasted on Jul 30:
foobar2000 1.3.17 / Dynamic Range Meter 1.1.1
log date: 2018-07-30 14:03:57

--------------------------------------------------------------------------------
Analyzed: Rod Stewart / Every Picture Tells A Story
--------------------------------------------------------------------------------

DR         Peak         RMS     Duration Track
--------------------------------------------------------------------------------
DR12      -3.76 dB   -18.10 dB      5:59 01-Every Picture Tells A Story
DR11      -4.77 dB   -19.24 dB      4:00 02-Seems Like A Long Time
DR11      -4.69 dB   -18.67 dB      6:00 03-That's All Right
DR10      -6.09 dB   -19.37 dB      3:44 04-Tomorrow Is A Long Time
DR11      -4.88 dB   -18.83 dB      5:46 05-Maggie May
DR11      -5.26 dB   -20.02 dB      5:32 06-Mandolin Wind
DR12      -4.55 dB   -18.43 dB      5:20 07-(I Know) I'm Losing You
DR10      -5.07 dB   -18.81 dB      4:07 08-Reason To Believe
--------------------------------------------------------------------------------

Number of tracks:  8
Official DR value: DR11

Samplerate:        2822400 Hz / PCM Samplerate: 176400 Hz
Channels:          2
Bits per sample:   1
Bitrate:           5645 kbps
Codec:             DSD64
================================================================================




Create a new paste based on this one


Comments: