[ create a new paste ] login | about

Link: http://codepad.org/xUbxTy5z    [ raw code | fork ]

Plain Text, pasted on Mar 22:
Exact Audio Copy V1.0 beta 3 from 29. August 2011

EAC extraction logfile from 11. October 2013, 21:45

Stan Getz / The Complete Stan Getz Columbia Albums (D2C)

Used drive  : ATAPI   DVD A  DH16ABSH   Adapter: 2  ID: 1

Read mode               : Secure
Utilize accurate stream : Yes
Defeat audio cache      : Yes
Make use of C2 pointers : No

Read offset correction                      : 6
Overread into Lead-In and Lead-Out          : No
Fill up missing offset samples with silence : Yes
Delete leading and trailing silent blocks   : No
Null samples used in CRC calculations       : Yes
Used interface                              : Native Win32 interface for Win NT & 2000
Gap handling                                : Appended to previous track

Used output format              : User Defined Encoder
Selected bitrate                : 128 kBit/s
Quality                         : High
Add ID3 tag                     : No
Command line compressor         : C:\Program Files (x86)\Exact Audio Copy\FLAC\FLAC.EXE
Additional command line options : -8 -V -T "ARTIST=%artist%" -T "TITLE=%title%" -T "ALBUM=%albumtitle%" -T "DATE=%year%" -T "TRACKNUMBER=%tracknr%" -T "TOTALTRACKS=%numtracks%" -T "GENRE=%genre%" -T "ALBUMARTIST=%albumartist%" -T "ALBUM ARTIST=%albumartist%" -T "COMMENT=EAC Secure Mode, Test & Copy, AccurateRip, FLAC -8" %source%


TOC of the extracted CD

     Track |   Start  |  Length  | Start sector | End sector 
    ---------------------------------------------------------
        1  |  0:00.14 | 10:06.24 |        14    |    45487   
        2  | 10:06.38 | 10:59.52 |     45488    |    94964   
        3  | 21:06.15 |  9:30.18 |     94965    |   137732   
        4  | 30:36.33 | 10:37.00 |    137733    |   185507   


Track  1

     Filename G:\Uploads\Ex\Stan Getz - The Complete Columbia Albums Collection (1972-79) [FLAC] {9xCDs}\Disc 3 - The Master\01 - Summer Night.wav

     Pre-gap length  0:00:02.14

     Peak level 97.6 %
     Extraction speed 3.8 X
     Track quality 100.0 %
     Test CRC 0289F690
     Copy CRC 0289F690
     Cannot be verified as accurate (confidence 6)  [1975A1A9], AccurateRip returned [E5AD2BB6]  (AR v2)
     Copy OK

Track  2

     Filename G:\Uploads\Ex\Stan Getz - The Complete Columbia Albums Collection (1972-79) [FLAC] {9xCDs}\Disc 3 - The Master\02 - Raven's Wood.wav

     Pre-gap length  0:00:06.56

     Peak level 97.6 %
     Extraction speed 3.8 X
     Track quality 99.9 %
     Test CRC 3F492C7F
     Copy CRC 3F492C7F
     Cannot be verified as accurate (confidence 6)  [8C39FBFC], AccurateRip returned [8FC14531]  (AR v2)
     Copy OK

Track  3

     Filename G:\Uploads\Ex\Stan Getz - The Complete Columbia Albums Collection (1972-79) [FLAC] {9xCDs}\Disc 3 - The Master\03 - Lover Man.wav

     Pre-gap length  0:00:05.53

     Peak level 97.4 %
     Extraction speed 5.5 X
     Track quality 100.0 %
     Test CRC C427ED0D
     Copy CRC C427ED0D
     Cannot be verified as accurate (confidence 6)  [E5D9647D], AccurateRip returned [5BF24F43]  (AR v2)
     Copy OK

Track  4

     Filename G:\Uploads\Ex\Stan Getz - The Complete Columbia Albums Collection (1972-79) [FLAC] {9xCDs}\Disc 3 - The Master\04 - Invitation.wav

     Pre-gap length  0:00:05.58

     Peak level 97.6 %
     Extraction speed 5.4 X
     Track quality 100.0 %
     Test CRC D45775CF
     Copy CRC D45775CF
     Cannot be verified as accurate (confidence 6)  [5F849E67], AccurateRip returned [F598FF00]  (AR v2)
     Copy OK


No tracks could be verified as accurate
You may have a different pressing from the one(s) in the database

No errors occurred

End of status report

==== Log checksum D75811AC4CA8B6A4CF568680F115236F4C4477FBDC57321583FA403AA33459FB ====



Create a new paste based on this one


Comments: