[ create a new paste ] login | about

Link: http://codepad.org/xVU1LAp5    [ raw code | fork ]

Plain Text, pasted on Dec 21:
foobar2000 1.6 / Dynamic Range Meter 1.1.1
log date: 2020-12-21 23:10:16

--------------------------------------------------------------------------------
Analyzed: Chris Jones & Ian Melrose / Even Santa Gets The Blues (Hybrid SACD) (1)
          Chris Jones & Peter Ratzenbeck / Even Santa Gets The Blues (Hybrid SACD) (2)
          Eugene Ruffolo / Even Santa Gets The Blues (Hybrid SACD) (3-15)
          Front Porch Picking / Even Santa Gets The Blues (Hybrid SACD) (16)
--------------------------------------------------------------------------------

DR         Peak         RMS     Duration Track
--------------------------------------------------------------------------------
DR10      -3.15 dB   -15.36 dB      2:56 07-Away In A Manger
DR11      -1.12 dB   -15.91 dB      2:37 10-Stille Nacht
DR9       -0.42 dB   -11.31 dB      2:33 01-Let It Snow
DR8       -0.50 dB   -10.44 dB      3:37 02-Here It Is Christmas
DR9       -0.83 dB   -10.88 dB      3:31 03-The Sweetest Part
DR9       -0.58 dB   -11.42 dB      3:30 04-Baby It's Cold Outside
DR9       -0.76 dB   -11.54 dB      2:34 05-Christmas Time Is Here
DR9       -0.54 dB   -10.52 dB      1:39 06-I Saw Mommy Kissing Santa Claus
DR9       -2.49 dB   -14.31 dB      3:09 08-The Christmas Song
DR9       -0.52 dB   -11.48 dB      4:03 09-Nothing But A Child
DR9       -1.14 dB   -11.84 dB      3:05 11-Silver Bells
DR9       -0.31 dB   -11.39 dB      3:10 13-Even Santa Gets The Blues
DR9       -0.47 dB   -11.94 dB      2:47 14-One Bright Star
DR9       -1.11 dB   -12.00 dB      4:36 15-O Holy Night
DR9       -0.01 dB   -11.64 dB      5:08 16-We Three Kings
DR8       -0.30 dB   -10.17 dB      2:08 12-Jingle Bells
--------------------------------------------------------------------------------

Number of tracks:  16
Official DR value: DR9

Samplerate:        88200 Hz
Channels:          2
Bits per sample:   24
Bitrate:           2741 kbps
Codec:             FLAC
================================================================================




Create a new paste based on this one


Comments: