[ create a new paste ] login | about

Link: http://codepad.org/xVhjfx0z    [ raw code | fork ]

Plain Text, pasted on Dec 12:
foobar2000 1.4.1 / Dynamic Range Meter 1.1.1
log date: 2018-12-12 11:57:10

--------------------------------------------------------------------------------
Analyzed: Big Brother & The Holding Company, Janis Joplin / Sex, Dope & Cheap Thrills
--------------------------------------------------------------------------------

DR         Peak         RMS     Duration Track
--------------------------------------------------------------------------------
DR11      -0.30 dB   -13.30 dB      5:33 01-Combination of The Two (Take 3)
DR12       0.00 dB   -14.07 dB      8:06 02-I Need a Man to Love (Take 4)
DR11      -0.19 dB   -15.08 dB      4:11 03-Summertime (Take 2)
DR11       0.00 dB   -12.87 dB      4:56 04-Piece of My Heart (Take 6)
DR11       0.00 dB   -14.86 dB      1:12 05-Harry (Take 10)
DR14      -0.01 dB   -16.87 dB      4:47 06-Turtle Blues (Take 4)
DR10      -0.01 dB   -11.68 dB      4:24 07-Oh, Sweet Mary
DR11       0.00 dB   -14.16 dB      7:29 08-Ball and Chain (Live at Winterland Ballroom, San Francisco, CA - April 12, 1968)
DR11       0.00 dB   -13.45 dB      5:43 09-Roadblock
DR11      -0.16 dB   -14.18 dB      5:34 10-Catch Me Daddy (Take 1)
DR10       0.00 dB   -12.86 dB      2:42 11-It's a Deal (Take 1)
DR11      -0.16 dB   -13.41 dB      4:35 12-Easy Once You Know How (Take 1)
DR12       0.00 dB   -13.24 dB      5:27 13-How Many Times Blues Jam
DR11       0.00 dB   -13.56 dB      5:02 14-Farewell Song (Take 7)
--------------------------------------------------------------------------------

Number of tracks:  14
Official DR value: DR11

Samplerate:        44100 Hz
Channels:          2
Bits per sample:   16
Bitrate:           784 kbps
Codec:             FLAC
================================================================================


foobar2000 1.4.1 / Dynamic Range Meter 1.1.1
log date: 2018-12-12 11:57:46

--------------------------------------------------------------------------------
Analyzed: Big Brother & The Holding Company, Janis Joplin / Sex, Dope & Cheap Thrills
--------------------------------------------------------------------------------

DR         Peak         RMS     Duration Track
--------------------------------------------------------------------------------
DR12      -0.19 dB   -13.51 dB      3:14 01-Flower In the Sun (Take 3)
DR11      -0.18 dB   -12.76 dB      6:55 02-Oh Sweet Mary
DR11      -0.01 dB   -14.74 dB      3:14 03-Summertime (Take 1)
DR10       0.00 dB   -11.88 dB      4:07 04-Piece of My Heart (Take 4)
DR12      -0.19 dB   -14.63 dB      3:15 05-Catch Me Daddy (Take 9)
DR11      -0.08 dB   -14.01 dB      4:22 06-Catch Me Daddy (Take 10)
DR12       0.00 dB   -13.74 dB      7:09 07-I Need a Man to Love (Take 3)
DR11      -0.17 dB   -13.78 dB      1:11 08-Harry (Take 9)
DR12      -0.17 dB   -13.92 dB      4:28 09-Farewell Song (Take 4)
DR12      -0.01 dB   -14.56 dB      3:58 10-Misery'n (Takes 2 & 3)
DR11      -0.19 dB   -13.42 dB      4:59 11-Misery'n (Take 4)
DR10      -0.15 dB   -12.64 dB      3:19 12-Magic of Love (Take 1)
DR14      -0.15 dB   -16.84 dB      3:59 13-Turtle Blues (Take 9)
DR14      -0.19 dB   -17.91 dB      4:36 14-Turtle Blues (last verse Takes 1 - 3)
DR10       0.00 dB   -12.43 dB      4:32 15-Piece of My Heart (Take 3)
DR11      -0.01 dB   -12.62 dB      5:12 16-Farewell Song (Take 5)
--------------------------------------------------------------------------------

Number of tracks:  16
Official DR value: DR11

Samplerate:        44100 Hz
Channels:          2
Bits per sample:   16
Bitrate:           559 kbps
Codec:             FLAC
================================================================================





Create a new paste based on this one


Comments: