[ create a new paste ] login | about

Link: http://codepad.org/xXyIgymO    [ raw code | fork ]

Plain Text, pasted on Nov 20:
Exact Audio Copy V1.3 from 2. September 2016

EAC extraction logfile from 11. November 2017, 10:18

Whitesnake / 1987 CD4 87 Versions

Used drive  : PLEXTOR BD-R  PX-B950SA   Adapter: 1  ID: 1

Read mode               : Secure
Utilize accurate stream : Yes
Defeat audio cache      : Yes
Make use of C2 pointers : No

Read offset correction                      : 6
Overread into Lead-In and Lead-Out          : No
Fill up missing offset samples with silence : Yes
Delete leading and trailing silent blocks   : No
Null samples used in CRC calculations       : Yes
Used interface                              : Native Win32 interface for Win NT & 2000

Used output format : Internal WAV Routines
Sample format      : 44.100 Hz; 16 Bit; Stereo


TOC of the extracted CD

     Track |   Start  |  Length  | Start sector | End sector 
    ---------------------------------------------------------
        1  |  0:00.00 |  6:31.68 |         0    |    29392   
        2  |  6:31.68 |  5:26.12 |     29393    |    53854   
        3  | 11:58.05 |  3:28.00 |     53855    |    69454   
        4  | 15:26.05 |  4:32.36 |     69455    |    89890   
        5  | 19:58.41 |  3:49.30 |     89891    |   107095   
        6  | 23:47.71 |  6:24.72 |    107096    |   135967   
        7  | 30:12.68 |  4:10.21 |    135968    |   154738   
        8  | 34:23.14 |  3:17.02 |    154739    |   169515   
        9  | 37:40.16 |  3:52.10 |    169516    |   186925   
       10  | 41:32.26 |  3:15.22 |    186926    |   201572   


Range status and errors

Selected range

     Filename C:\Whitesnake\1987 (4CD + DVD Box Set Parlophone Records)\CD4 87 Versions 2017 Remixes\Whitesnake - 1987 CD4 87 Versions.wav

     Peak level 97.6 %
     Extraction speed 6.7 X
     Range quality 100.0 %
     Test CRC D54AB4EE
     Copy CRC D54AB4EE
     Copy OK

No errors occurred

 
AccurateRip summary
 
Track  1  not present in database
Track  2  not present in database
Track  3  not present in database
Track  4  not present in database
Track  5  not present in database
Track  6  not present in database
Track  7  not present in database
Track  8  not present in database
Track  9  not present in database
Track 10  not present in database
 
None of the tracks are present in the AccurateRip database

End of status report

---- CUETools DB Plugin V2.1.6

[CTDB TOCID: ycQRHima7ql2ZbvTuYysxDqmRgw-] found
Submit result: ycQRHima7ql2ZbvTuYysxDqmRgw- has been confirmed
Track | CTDB Status
  1   | (19/19) Accurately ripped
  2   | (19/19) Accurately ripped
  3   | (19/19) Accurately ripped
  4   | (19/19) Accurately ripped
  5   | (19/19) Accurately ripped
  6   | (19/19) Accurately ripped
  7   | (19/19) Accurately ripped
  8   | (19/19) Accurately ripped
  9   | (19/19) Accurately ripped
 10   | (19/19) Accurately ripped


==== Log checksum 6B7405B42D6BCB8A1F654956200973A88676FB7278EABA2C2277631FF1E164BF ====



Create a new paste based on this one


Comments: