[ create a new paste ] login | about

Link: http://codepad.org/xYElyqgz    [ raw code | fork ]

Plain Text, pasted on Apr 13:
foobar2000 1.3.17 / Dynamic Range Meter 1.1.1
log date: 2018-04-12 21:30:16

--------------------------------------------------------------------------------
Analyzed: Todd Rundgren / Something/Anything? (2018 AS Hybrid SACD)
--------------------------------------------------------------------------------

DR         Peak         RMS     Duration Track
--------------------------------------------------------------------------------
DR12      -1.74 dB   -15.58 dB      3:01 01-I Saw The Light
DR13      -0.66 dB   -18.14 dB      3:51 02-It Wouldn't Have Made Any Difference
DR11      -1.98 dB   -15.34 dB      2:56 03-Wolfman Jack
DR12      -3.07 dB   -17.53 dB      3:35 04-Cold Morning Light
DR10      -4.13 dB   -15.76 dB      2:42 05-It Takes Two To Tango (This Is For The Girls)
DR11      -3.62 dB   -17.61 dB      3:37 06-Sweeter Memories
DR13      -1.60 dB   -20.84 dB      1:12 07-Intro
DR10      -3.77 dB   -15.60 dB      3:16 08-Breathless
DR10      -3.08 dB   -16.42 dB      4:29 09-The Night The Carousel Burnt Down
DR11      -2.49 dB   -15.83 dB      4:12 10-Saving Grace
DR12      -2.04 dB   -17.41 dB      3:55 11-Marlene
DR10      -3.21 dB   -16.85 dB      2:36 12-Song Of The Viking
DR14      -1.51 dB   -19.41 dB      4:11 13-I Went To The Mirror
DR13      -0.01 dB   -17.45 dB      5:21 14-Black Maria
DR11      -2.42 dB   -16.93 dB      3:43 15-One More Day (No Word)
DR11      -3.04 dB   -16.00 dB      3:35 16-Couldn't I Just Tell You
DR10      -4.44 dB   -17.58 dB      2:53 17-Torch Song
DR13      -1.42 dB   -16.34 dB      4:53 18-Little Red Lights
DR12      -3.06 dB   -17.89 dB      2:30 19-Overture - My Roots: Money (That's What I Want) ¥ Messin' With The Kid
DR11      -3.49 dB   -17.35 dB      3:50 20-Dust In The Wind
DR11      -3.27 dB   -16.47 dB      3:27 21-Piss Aaron
DR11      -2.71 dB   -16.26 dB      4:38 22-Hello, It's Me
DR11      -2.36 dB   -16.32 dB      4:00 23-Some Folks Is Even Whiter Than Me
DR14      -1.18 dB   -18.84 dB      3:14 24-You Left Me Sore
DR11      -1.96 dB   -15.25 dB      4:07 25-Slut
--------------------------------------------------------------------------------

Number of tracks:  25
Official DR value: DR12

Samplerate:        88200 Hz
Channels:          2
Bits per sample:   24
Bitrate:           2664 kbps
Codec:             FLAC
================================================================================




Create a new paste based on this one


Comments: