[ create a new paste ] login | about

Link: http://codepad.org/xYn582DC    [ raw code | fork ]

Plain Text, pasted on Sep 4:
foobar2000 1.4.6 / Dynamic Range Meter 1.1.1
log date: 2019-09-04 10:15:00

--------------------------------------------------------------------------------
Analyzed: Sheryl Crow / Threads
--------------------------------------------------------------------------------

DR         Peak         RMS     Duration Track
--------------------------------------------------------------------------------
DR5        0.00 dB    -6.61 dB      3:39 01-Prove You Wrong
DR4        0.00 dB    -6.03 dB      5:09 02-Live Wire
DR4       -0.65 dB    -6.24 dB      4:57 03-Tell Me When It’s Over
DR4        0.00 dB    -5.82 dB      6:23 04-Story Of Everything
DR6       -0.06 dB    -7.73 dB      3:38 05-Beware Of Darkness
DR7       -0.20 dB    -9.77 dB      4:46 06-Redemption Day
DR5       -0.08 dB    -6.92 dB      4:46 07-Cross Creek Road
DR5       -0.12 dB    -5.76 dB      4:32 08-Everything Is Broken
DR6        0.00 dB    -8.56 dB      2:38 09-The Worst
DR8        0.00 dB    -9.07 dB      4:38 10-Lonely Alone
DR6       -0.09 dB    -7.81 dB      4:43 11-Border Lord
DR5       -0.44 dB    -6.56 dB      5:17 12-Still The Good Old Days
DR5        0.00 dB    -7.09 dB      3:36 13-Wouldn’t Want To Be Like You
DR6       -0.20 dB    -7.97 dB      4:06 14-Don't
DR7       -0.10 dB   -10.14 dB      4:44 15-Nobody’s Perfect
DR6       -0.24 dB    -7.38 dB      3:41 16-Flying Blind
DR5       -0.46 dB    -7.71 dB      3:35 17-For The Sake Of Love
--------------------------------------------------------------------------------

Number of tracks:  17
Official DR value: DR6

Samplerate:        44100 Hz
Channels:          2
Bits per sample:   16
Bitrate:           859 kbps
Codec:             FLAC
================================================================================




Create a new paste based on this one


Comments: