[ create a new paste ] login | about

Link: http://codepad.org/xbRqP71g    [ raw code | fork ]

Plain Text, pasted on Mar 18:
foobar2000 1.5 / Dynamic Range Meter 1.1.1
log date: 2020-03-18 17:57:30

--------------------------------------------------------------------------------
Analyzed: Grateful Dead / From The Mars Hotel MFSL
--------------------------------------------------------------------------------

DR         Peak         RMS     Duration Track
--------------------------------------------------------------------------------
DR11      -0.62 dB   -13.57 dB      4:43 01-U.S. Blues
DR13      -0.62 dB   -16.53 dB      4:11 02-China Doll
DR11      -0.63 dB   -14.90 dB      6:46 03-Unbroken Chain
DR11      -0.52 dB   -12.93 dB      3:24 04-Loose Lucy
DR11      -0.36 dB   -13.53 dB      4:19 05-Scarlet Begonias
DR12      -0.78 dB   -13.93 dB      4:18 06-Pride Of Cucamonga
DR10      -0.79 dB   -13.30 dB      4:24 07-Money Money
DR12      -0.34 dB   -15.50 dB      5:30 08-Ship Of Fools
--------------------------------------------------------------------------------

Number of tracks:  8
Official DR value: DR11

Samplerate:        44100 Hz
Channels:          2
Bits per sample:   16
Bitrate:           797 kbps
Codec:             FLAC
================================================================================




Create a new paste based on this one


Comments: