[ create a new paste ] login | about

Link: http://codepad.org/xgogGl5A    [ raw code | fork ]

Plain Text, pasted on Jul 13:
1
2
3
4
5
6
7
8
9
10
11
12
13
14
15
16
17
18
19
20
21
22
23
24
25
26
27
28
29
30
31
32
33
34
35
36
37
38
39
40
41
42
43
44
45
46
47
48
49
50
51
52
53
54
55
56
57
58
59
60
61
62
63
64
65
66
67
68
69
70
71
72
73
74
75
76
77
78
79
80
81
82
83
84
85
86
87
88
89
90
91
92
93
94
95
96
97
98
99
100
101
102
103
104
105
106
107
108
109
110
111
112
113
114
115
116
117
118
119
120
121
122
123
124
125
126
127
128
129
130
131
132
133
134
135
136
137
138
139
140
141
142
143
144
145
146
147
148
149
150
151
152
153
154
155
156
157
158
159
160
161
162
163
164
165
166
167
168
169
170
171
172
173
174
175
176
177
178
179
180
181
182
183
184
185
186
187
188
189
190
191
192
193
194
195
196
197
198
199
200
201
202
203
204
205
206
207
208
209
210
211
212
213
214
215
216
217
218
219
220
221
222
223
224
225
226
227
228
229
230
231
232
233
234
235
236
237
238
239
240
241
242
243
244
245
246
247
248
249
250
251
252
253
254
255
256
257
258
259
260
261
262
263
264
265
266
267
268
269
270
271
272
273
274
275
276
277
278
279
280
281
282
283
284
285
286
287
288
289
290
291
292
293
294
295
296
297
298
299
300
301
302
303
304
305
306
307
308
309
310
311
312
313
314
315
316
317
318
319
320
321
322
323
324
325
326
327
328
329
330
331
332
333
334
335
336
337
338
339
340
341
342
343
344
345
346
347
348
349
350
351
352
353
354
355
356
357
358
359
360
361
362
363
364
365
366
367
368
369
370
371
372
373
374
375
376
377
378
379
380
381
382
383
384
385
386
387
388
389
390
391
392
393
394
395
396
397
398
399
400
401
402
403
404
405
406
407
408
409
410
411
412
413
414
415
416
417
418
419
420
421
422
423
424
425
426
427
428
429
430
431
432
433
434
435
436
437
438
439
440
441
442
443
444
445
446
447
448
449
450
451
452
453
454
455
456
457
458
459
460
461
462
463
464
465
466
467
468
469
470
471
472
473
474
475
476
477
478
479
480
481
482
483
484
485
486
487
488
489
490
491
492
493
494
495
496
497
498
499
500
501
502
503
504
505
506
507
508
509
510
511
512
513
514
515
516
517
518
519
520
521
522
523
524
525
526
527
528
529
530
531
532
533
534
535
536
537
538
539
540
541
542
543
544
545
546
547
548
549
550
551
552
553
554
555
556
557
558
559
560
561
562
563
564
565
566
567
568
569
570
571
572
573
574
575
576
577
578
579
580
581
582
583
584
585
586
587
588
589
590
591
592
593
594
595
596
597
598
599
600
601
602
603
604
605
606
607
608
609
610
611
612
613
614
615
616
617
618
619
620
621
622
623
624
625
626
627
628
629
630
631
632
633
634
635
636
637
638
639
640
641
642
643
644
645
646
647
648
649
650
651
652
653
654
655
656
657
658
659
660
661
662
663
664
665
666
667
668
669
670
671
672
673
674
675
676
677
678
679
680
681
682
683
684
685
686
687
688
689
690
691
692
693
694
695
696
697
698
699
700
701
702
703
704
705
706
707
708
709
710
711
712
713
714
715
716
717
718
719
720
Disc Title:     THE BEATLES 1
Disc Size:      36 585 184 634 bytes
Protection:     AACS
BD-Java:        No
BDInfo:         0.5.8

Notes:          

BDINFO HOME:
  Cinema Squid
    http://www.cinemasquid.com/blu-ray/tools/bdinfo

INCLUDES FORUMS REPORT FOR:
  AVS Forum Blu-ray Audio and Video Specifications Thread
    http://www.avsforum.com/avs-vb/showthread.php?t=1155731


********************
PLAYLIST: 00001.MPLS
********************

<--- BEGIN FORUMS PASTE --->
[code]
                                                                                                                Total   Video                                             
Title                                                           Codec   Length  Movie Size      Disc Size       Bitrate Bitrate Main Audio Track                          Secondary Audio Track
-----                                                           ------  ------- --------------  --------------  ------- ------- ------------------                        ---------------------
00001.MPLS                                                      AVC     0:14:49 4 771 829 760   36 585 184 634  42,91   27,50   LPCM 2.0 4608Kbps (96kHz/24-bit)          DTS-HD Master 5.1 7813Kbps (96kHz/24-bit)
[/code]

[code]

DISC INFO:

Disc Title:     THE BEATLES 1
Disc Size:      36 585 184 634 bytes
Protection:     AACS
BD-Java:        No
BDInfo:         0.5.8

PLAYLIST REPORT:

Name:                   00001.MPLS
Length:                 0:14:49.688 (h:m:s.ms)
Size:                   4 771 829 760 bytes
Total Bitrate:          42,91 Mbps

VIDEO:

Codec                   Bitrate             Description     
-----                   -------             -----------     
MPEG-4 AVC Video        27500 kbps          1080i / 29,970 fps / 16:9 / High Profile 4.1

AUDIO:

Codec                           Language        Bitrate         Description     
-----                           --------        -------         -----------     
LPCM Audio                      English         4608 kbps       2.0 / 96 kHz / 4608 kbps / 24-bit
DTS-HD Master Audio             English         7813 kbps       5.1 / 96 kHz / 7813 kbps / 24-bit (DTS Core: 5.1 / 48 kHz / 1509 kbps / 24-bit)
Dolby Digital Audio             English         640 kbps        5.1 / 48 kHz / 640 kbps

SUBTITLES:

Codec                           Language        Bitrate         Description     
-----                           --------        -------         -----------     
Presentation Graphics           English         0,174 kbps                      
Presentation Graphics           Spanish         0,174 kbps                      
Presentation Graphics           Dutch           0,174 kbps                      
Presentation Graphics           French          0,174 kbps                      
Presentation Graphics           Portuguese      0,174 kbps                      
Presentation Graphics           German          0,174 kbps                      
Presentation Graphics           Italian         0,174 kbps                      

FILES:

Name            Time In         Length          Size            Total Bitrate   
----            -------         ------          ----            -------------   
00070.M2TS      0:00:00.000     0:00:07.006     29 239 296      33 383          
00000.M2TS      0:00:07.006     0:02:25.445     732 801 024     40 307          
00071.M2TS      0:02:32.452     0:00:07.006     34 486 272      39 374          
00170.M2TS      0:02:39.459     0:01:56.549     658 851 840     45 224          
00072.M2TS      0:04:36.009     0:00:07.006     7 483 392       8 544           
00168.M2TS      0:04:43.016     0:02:23.743     824 739 840     45 901          
00073.M2TS      0:07:06.759     0:00:07.006     29 239 296      33 383          
00003.M2TS      0:07:13.766     0:02:31.551     772 343 808     40 770          
00074.M2TS      0:09:45.318     0:00:07.006     7 397 376       8 446           
00004.M2TS      0:09:52.325     0:02:10.230     751 675 392     46 175          
00075.M2TS      0:12:02.555     0:00:07.006     7 354 368       8 397           
00005.M2TS      0:12:09.562     0:02:39.125     901 330 944     45 314          
00097.M2TS      0:14:48.687     0:00:01.000     14 886 912      118 976         

CHAPTERS:

Number          Time In         Length          Avg Video Rate  Max 1-Sec Rate  Max 1-Sec Time  Max 5-Sec Rate  Max 5-Sec Time  Max 10Sec Rate  Max 10Sec Time  Avg Frame Size  Max Frame Size  Max Frame Time  
------          -------         ------          --------------  --------------  --------------  --------------  --------------  --------------  --------------  --------------  --------------  --------------  
1               0:00:00.000     0:02:32.452     24 941 kbps     54 088 kbps     00:00:07.273    29 819 kbps     00:00:03.269    26 832 kbps     00:00:07.507    104 002 bytes   684 570 bytes   00:00:08.108    
2               0:02:32.452     0:02:03.556     29 992 kbps     58 933 kbps     00:02:39.993    35 786 kbps     00:02:35.989    32 046 kbps     00:02:34.254    125 090 bytes   551 612 bytes   00:02:40.493    
3               0:04:36.009     0:02:30.750     28 627 kbps     58 893 kbps     00:04:44.083    33 943 kbps     00:04:43.616    31 806 kbps     00:04:43.416    119 398 bytes   643 476 bytes   00:04:44.617    
4               0:07:06.759     0:02:38.558     24 937 kbps     54 119 kbps     00:07:15.968    29 874 kbps     00:07:13.933    27 412 kbps     00:07:06.959    104 008 bytes   570 700 bytes   00:07:16.469    
5               0:09:45.318     0:02:17.237     28 502 kbps     40 361 kbps     00:11:17.810    35 084 kbps     00:11:17.743    34 469 kbps     00:11:17.810    118 878 bytes   368 472 bytes   00:11:32.858    
6               0:12:02.555     0:02:46.132     28 758 kbps     45 091 kbps     00:13:21.600    38 305 kbps     00:13:19.698    35 754 kbps     00:13:21.100    119 944 bytes   654 006 bytes   00:14:33.205    
7               0:14:48.687     0:00:01.000     96 kbps         0 kbps          00:00:00.000    0 kbps          00:00:00.000    0 kbps          00:00:00.000    415 bytes       1 469 bytes     00:14:49.655    

STREAM DIAGNOSTICS:

File            PID             Type            Codec           Language                Seconds                 Bitrate                 Bytes           Packets         
----            ---             ----            -----           --------                --------------          --------------          -------------   -----           
00070.M2TS      4113 (0x1011)   0x1B            AVC                                     6,907                   24 638                  21 271 884      115 677         
00070.M2TS      4352 (0x1100)   0x80            LPCM            eng (English)           6,907                   4 683                   4 043 368       22 432          
00070.M2TS      4353 (0x1101)   0x86            DTS-HD MA       eng (English)           6,907                   2 040                   1 761 376       10 528          
00070.M2TS      4354 (0x1102)   0x81            AC3             eng (English)           6,907                   649                     560 640         3 285           
00070.M2TS      4608 (0x1200)   0x90            PGS             eng (English)           6,907                   2                       1 490           15              
00070.M2TS      4609 (0x1201)   0x90            PGS             spa (Spanish)           6,907                   2                       1 490           15              
00070.M2TS      4610 (0x1202)   0x90            PGS             nld (Dutch)             6,907                   2                       1 490           15              
00070.M2TS      4611 (0x1203)   0x90            PGS             fra (French)            6,907                   2                       1 490           15              
00070.M2TS      4612 (0x1204)   0x90            PGS             por (Portuguese)        6,907                   2                       1 490           15              
00070.M2TS      4613 (0x1205)   0x90            PGS             deu (German)            6,907                   2                       1 490           15              
00070.M2TS      4614 (0x1206)   0x90            PGS             ita (Italian)           6,907                   2                       1 490           15              
00000.M2TS      4113 (0x1011)   0x1B            AVC                                     145,379                 24 977                  453 890 464     2 469 329       
00000.M2TS      4352 (0x1100)   0x80            LPCM            eng (English)           145,379                 4 614                   83 855 184      465 216         
00000.M2TS      4353 (0x1101)   0x86            DTS-HD MA       eng (English)           145,379                 7 961                   144 668 968     808 973         
00000.M2TS      4354 (0x1102)   0x81            AC3             eng (English)           145,379                 640                     11 635 200      68 175          
00000.M2TS      4608 (0x1200)   0x90            PGS             eng (English)           145,379                 0                       1 490           15              
00000.M2TS      4609 (0x1201)   0x90            PGS             spa (Spanish)           145,379                 0                       1 490           15              
00000.M2TS      4610 (0x1202)   0x90            PGS             nld (Dutch)             145,379                 0                       1 490           15              
00000.M2TS      4611 (0x1203)   0x90            PGS             fra (French)            145,379                 0                       1 490           15              
00000.M2TS      4612 (0x1204)   0x90            PGS             por (Portuguese)        145,379                 0                       1 490           15              
00000.M2TS      4613 (0x1205)   0x90            PGS             deu (German)            145,379                 0                       1 490           15              
00000.M2TS      4614 (0x1206)   0x90            PGS             ita (Italian)           145,379                 0                       1 490           15              
00071.M2TS      4113 (0x1011)   0x1B            AVC                                     6,907                   30 434                  26 275 939      143 010         
00071.M2TS      4352 (0x1100)   0x80            LPCM            eng (English)           6,907                   4 680                   4 040 484       22 416          
00071.M2TS      4353 (0x1101)   0x86            DTS-HD MA       eng (English)           6,907                   2 040                   1 761 376       10 528          
00071.M2TS      4354 (0x1102)   0x81            AC3             eng (English)           6,907                   649                     560 640         3 285           
00071.M2TS      4608 (0x1200)   0x90            PGS             eng (English)           6,907                   2                       1 490           15              
00071.M2TS      4609 (0x1201)   0x90            PGS             spa (Spanish)           6,907                   2                       1 490           15              
00071.M2TS      4610 (0x1202)   0x90            PGS             nld (Dutch)             6,907                   2                       1 490           15              
00071.M2TS      4611 (0x1203)   0x90            PGS             fra (French)            6,907                   2                       1 490           15              
00071.M2TS      4612 (0x1204)   0x90            PGS             por (Portuguese)        6,907                   2                       1 490           15              
00071.M2TS      4613 (0x1205)   0x90            PGS             deu (German)            6,907                   2                       1 490           15              
00071.M2TS      4614 (0x1206)   0x90            PGS             ita (Italian)           6,907                   2                       1 490           15              
00170.M2TS      4113 (0x1011)   0x1B            AVC                                     116,483                 30 017                  437 056 056     2 377 358       
00170.M2TS      4352 (0x1100)   0x80            LPCM            eng (English)           116,483                 4 617                   67 231 808      372 992         
00170.M2TS      4353 (0x1101)   0x86            DTS-HD MA       eng (English)           116,483                 7 636                   111 189 848     622 471         
00170.M2TS      4354 (0x1102)   0x81            AC3             eng (English)           116,483                 641                     9 326 080       54 645          
00170.M2TS      4608 (0x1200)   0x90            PGS             eng (English)           116,483                 0                       1 490           15              
00170.M2TS      4609 (0x1201)   0x90            PGS             spa (Spanish)           116,483                 0                       1 490           15              
00170.M2TS      4610 (0x1202)   0x90            PGS             nld (Dutch)             116,483                 0                       1 490           15              
00170.M2TS      4611 (0x1203)   0x90            PGS             fra (French)            116,483                 0                       1 490           15              
00170.M2TS      4612 (0x1204)   0x90            PGS             por (Portuguese)        116,483                 0                       1 490           15              
00170.M2TS      4613 (0x1205)   0x90            PGS             deu (German)            116,483                 0                       1 490           15              
00170.M2TS      4614 (0x1206)   0x90            PGS             ita (Italian)           116,483                 0                       1 490           15              
00072.M2TS      4113 (0x1011)   0x1B            AVC                                     6,907                   475                     409 761         2 368           
00072.M2TS      4352 (0x1100)   0x80            LPCM            eng (English)           6,907                   4 680                   4 040 484       22 416          
00072.M2TS      4353 (0x1101)   0x86            DTS-HD MA       eng (English)           6,907                   2 040                   1 761 376       10 528          
00072.M2TS      4354 (0x1102)   0x81            AC3             eng (English)           6,907                   649                     560 640         3 285           
00072.M2TS      4608 (0x1200)   0x90            PGS             eng (English)           6,907                   2                       1 490           15              
00072.M2TS      4609 (0x1201)   0x90            PGS             spa (Spanish)           6,907                   2                       1 490           15              
00072.M2TS      4610 (0x1202)   0x90            PGS             nld (Dutch)             6,907                   2                       1 490           15              
00072.M2TS      4611 (0x1203)   0x90            PGS             fra (French)            6,907                   2                       1 490           15              
00072.M2TS      4612 (0x1204)   0x90            PGS             por (Portuguese)        6,907                   2                       1 490           15              
00072.M2TS      4613 (0x1205)   0x90            PGS             deu (German)            6,907                   2                       1 490           15              
00072.M2TS      4614 (0x1206)   0x90            PGS             ita (Italian)           6,907                   2                       1 490           15              
00168.M2TS      4113 (0x1011)   0x1B            AVC                                     143,610                 30 027                  539 031 626     2 932 104       
00168.M2TS      4352 (0x1100)   0x80            LPCM            eng (English)           143,610                 4 567                   81 974 816      454 784         
00168.M2TS      4353 (0x1101)   0x86            DTS-HD MA       eng (English)           143,610                 8 353                   149 941 028     837 074         
00168.M2TS      4354 (0x1102)   0x81            AC3             eng (English)           143,610                 633                     11 371 520      66 630          
00168.M2TS      4608 (0x1200)   0x90            PGS             eng (English)           143,610                 0                       1 490           15              
00168.M2TS      4609 (0x1201)   0x90            PGS             spa (Spanish)           143,610                 0                       1 490           15              
00168.M2TS      4610 (0x1202)   0x90            PGS             nld (Dutch)             143,610                 0                       1 490           15              
00168.M2TS      4611 (0x1203)   0x90            PGS             fra (French)            143,610                 0                       1 490           15              
00168.M2TS      4612 (0x1204)   0x90            PGS             por (Portuguese)        143,610                 0                       1 490           15              
00168.M2TS      4613 (0x1205)   0x90            PGS             deu (German)            143,610                 0                       1 490           15              
00168.M2TS      4614 (0x1206)   0x90            PGS             ita (Italian)           143,610                 0                       1 490           15              
00073.M2TS      4113 (0x1011)   0x1B            AVC                                     6,907                   24 638                  21 271 884      115 676         
00073.M2TS      4352 (0x1100)   0x80            LPCM            eng (English)           6,907                   4 683                   4 043 368       22 432          
00073.M2TS      4353 (0x1101)   0x86            DTS-HD MA       eng (English)           6,907                   2 040                   1 761 376       10 528          
00073.M2TS      4354 (0x1102)   0x81            AC3             eng (English)           6,907                   649                     560 640         3 285           
00073.M2TS      4608 (0x1200)   0x90            PGS             eng (English)           6,907                   2                       1 490           15              
00073.M2TS      4609 (0x1201)   0x90            PGS             spa (Spanish)           6,907                   2                       1 490           15              
00073.M2TS      4610 (0x1202)   0x90            PGS             nld (Dutch)             6,907                   2                       1 490           15              
00073.M2TS      4611 (0x1203)   0x90            PGS             fra (French)            6,907                   2                       1 490           15              
00073.M2TS      4612 (0x1204)   0x90            PGS             por (Portuguese)        6,907                   2                       1 490           15              
00073.M2TS      4613 (0x1205)   0x90            PGS             deu (German)            6,907                   2                       1 490           15              
00073.M2TS      4614 (0x1206)   0x90            PGS             ita (Italian)           6,907                   2                       1 490           15              
00003.M2TS      4113 (0x1011)   0x1B            AVC                                     151,418                 24 989                  472 971 978     2 573 079       
00003.M2TS      4352 (0x1100)   0x80            LPCM            eng (English)           151,418                 4 619                   87 419 808      484 992         
00003.M2TS      4353 (0x1101)   0x86            DTS-HD MA       eng (English)           151,418                 8 406                   159 107 772     888 295         
00003.M2TS      4354 (0x1102)   0x81            AC3             eng (English)           151,418                 641                     12 126 720      71 055          
00003.M2TS      4608 (0x1200)   0x90            PGS             eng (English)           151,418                 0                       1 490           15              
00003.M2TS      4609 (0x1201)   0x90            PGS             spa (Spanish)           151,418                 0                       1 490           15              
00003.M2TS      4610 (0x1202)   0x90            PGS             nld (Dutch)             151,418                 0                       1 490           15              
00003.M2TS      4611 (0x1203)   0x90            PGS             fra (French)            151,418                 0                       1 490           15              
00003.M2TS      4612 (0x1204)   0x90            PGS             por (Portuguese)        151,418                 0                       1 490           15              
00003.M2TS      4613 (0x1205)   0x90            PGS             deu (German)            151,418                 0                       1 490           15              
00003.M2TS      4614 (0x1206)   0x90            PGS             ita (Italian)           151,418                 0                       1 490           15              
00074.M2TS      4113 (0x1011)   0x1B            AVC                                     6,907                   385                     332 505         1 926           
00074.M2TS      4352 (0x1100)   0x80            LPCM            eng (English)           6,907                   4 680                   4 040 484       22 416          
00074.M2TS      4353 (0x1101)   0x86            DTS-HD MA       eng (English)           6,907                   2 040                   1 761 376       10 528          
00074.M2TS      4354 (0x1102)   0x81            AC3             eng (English)           6,907                   649                     560 640         3 285           
00074.M2TS      4608 (0x1200)   0x90            PGS             eng (English)           6,907                   2                       1 490           15              
00074.M2TS      4609 (0x1201)   0x90            PGS             spa (Spanish)           6,907                   2                       1 490           15              
00074.M2TS      4610 (0x1202)   0x90            PGS             nld (Dutch)             6,907                   2                       1 490           15              
00074.M2TS      4611 (0x1203)   0x90            PGS             fra (French)            6,907                   2                       1 490           15              
00074.M2TS      4612 (0x1204)   0x90            PGS             por (Portuguese)        6,907                   2                       1 490           15              
00074.M2TS      4613 (0x1205)   0x90            PGS             deu (German)            6,907                   2                       1 490           15              
00074.M2TS      4614 (0x1206)   0x90            PGS             ita (Italian)           6,907                   2                       1 490           15              
00004.M2TS      4113 (0x1011)   0x1B            AVC                                     130,130                 30 039                  488 614 690     2 657 799       
00004.M2TS      4352 (0x1100)   0x80            LPCM            eng (English)           130,130                 4 726                   76 867 252      426 448         
00004.M2TS      4353 (0x1101)   0x86            DTS-HD MA       eng (English)           130,130                 8 403                   136 683 760     763 625         
00004.M2TS      4354 (0x1102)   0x81            AC3             eng (English)           130,130                 656                     10 664 960      62 490          
00004.M2TS      4608 (0x1200)   0x90            PGS             eng (English)           130,130                 0                       1 490           15              
00004.M2TS      4609 (0x1201)   0x90            PGS             spa (Spanish)           130,130                 0                       1 490           15              
00004.M2TS      4610 (0x1202)   0x90            PGS             nld (Dutch)             130,130                 0                       1 490           15              
00004.M2TS      4611 (0x1203)   0x90            PGS             fra (French)            130,130                 0                       1 490           15              
00004.M2TS      4612 (0x1204)   0x90            PGS             por (Portuguese)        130,130                 0                       1 490           15              
00004.M2TS      4613 (0x1205)   0x90            PGS             deu (German)            130,130                 0                       1 490           15              
00004.M2TS      4614 (0x1206)   0x90            PGS             ita (Italian)           130,130                 0                       1 490           15              
00075.M2TS      4113 (0x1011)   0x1B            AVC                                     6,907                   340                     293 555         1 708           
00075.M2TS      4352 (0x1100)   0x80            LPCM            eng (English)           6,907                   4 680                   4 040 484       22 416          
00075.M2TS      4353 (0x1101)   0x86            DTS-HD MA       eng (English)           6,907                   2 040                   1 761 376       10 528          
00075.M2TS      4354 (0x1102)   0x81            AC3             eng (English)           6,907                   649                     560 640         3 285           
00075.M2TS      4608 (0x1200)   0x90            PGS             eng (English)           6,907                   2                       1 490           15              
00075.M2TS      4609 (0x1201)   0x90            PGS             spa (Spanish)           6,907                   2                       1 490           15              
00075.M2TS      4610 (0x1202)   0x90            PGS             nld (Dutch)             6,907                   2                       1 490           15              
00075.M2TS      4611 (0x1203)   0x90            PGS             fra (French)            6,907                   2                       1 490           15              
00075.M2TS      4612 (0x1204)   0x90            PGS             por (Portuguese)        6,907                   2                       1 490           15              
00075.M2TS      4613 (0x1205)   0x90            PGS             deu (German)            6,907                   2                       1 490           15              
00075.M2TS      4614 (0x1206)   0x90            PGS             ita (Italian)           6,907                   2                       1 490           15              
00005.M2TS      4113 (0x1011)   0x1B            AVC                                     158,992                 30 035                  596 909 935     3 246 877       
00005.M2TS      4352 (0x1100)   0x80            LPCM            eng (English)           158,992                 4 586                   91 134 400      505 600         
00005.M2TS      4353 (0x1101)   0x86            DTS-HD MA       eng (English)           158,992                 7 757                   154 169 824     862 445         
00005.M2TS      4354 (0x1102)   0x81            AC3             eng (English)           158,992                 636                     12 641 280      74 070          
00005.M2TS      4608 (0x1200)   0x90            PGS             eng (English)           158,992                 0                       1 490           15              
00005.M2TS      4609 (0x1201)   0x90            PGS             spa (Spanish)           158,992                 0                       1 490           15              
00005.M2TS      4610 (0x1202)   0x90            PGS             nld (Dutch)             158,992                 0                       1 490           15              
00005.M2TS      4611 (0x1203)   0x90            PGS             fra (French)            158,992                 0                       1 490           15              
00005.M2TS      4612 (0x1204)   0x90            PGS             por (Portuguese)        158,992                 0                       1 490           15              
00005.M2TS      4613 (0x1205)   0x90            PGS             deu (German)            158,992                 0                       1 490           15              
00005.M2TS      4614 (0x1206)   0x90            PGS             ita (Italian)           158,992                 0                       1 490           15              
00097.M2TS      4113 (0x1011)   0x1B            AVC                                     0,934                   116                     13 489          132             
00097.M2TS      4352 (0x1100)   0x80            LPCM            eng (English)           0,934                   49 391                  5 768 000       32 000          
00097.M2TS      4353 (0x1101)   0x86            DTS-HD MA       eng (English)           0,934                   21 532                  2 514 556       15 029          
00097.M2TS      4354 (0x1102)   0x81            AC3             eng (English)           0,934                   41 211                  4 812 800       28 200          
00097.M2TS      4608 (0x1200)   0x90            PGS             eng (English)           0,934                   13                      1 490           15              
00097.M2TS      4609 (0x1201)   0x90            PGS             spa (Spanish)           0,934                   13                      1 490           15              
00097.M2TS      4610 (0x1202)   0x90            PGS             nld (Dutch)             0,934                   13                      1 490           15              
00097.M2TS      4611 (0x1203)   0x90            PGS             fra (French)            0,934                   13                      1 490           15              
00097.M2TS      4612 (0x1204)   0x90            PGS             por (Portuguese)        0,934                   13                      1 490           15              
00097.M2TS      4613 (0x1205)   0x90            PGS             deu (German)            0,934                   13                      1 490           15              
00097.M2TS      4614 (0x1206)   0x90            PGS             ita (Italian)           0,934                   13                      1 490           15              

[/code]
<---- END FORUMS PASTE ---->

QUICK SUMMARY:

Disc Title: THE BEATLES 1
Disc Size: 36 585 184 634 bytes
Protection: AACS
BD-Java: No
Playlist: 00001.MPLS
Size: 4 771 829 760 bytes
Length: 0:14:49.688
Total Bitrate: 42,91 Mbps
Video: MPEG-4 AVC Video / 27500 kbps / 1080i / 29,970 fps / 16:9 / High Profile 4.1
Audio: English / LPCM Audio / 2.0 / 96 kHz / 4608 kbps / 24-bit
Audio: English / DTS-HD Master Audio / 5.1 / 96 kHz / 7813 kbps / 24-bit (DTS Core: 5.1 / 48 kHz / 1509 kbps / 24-bit)
Audio: English / Dolby Digital Audio / 5.1 / 48 kHz / 640 kbps
Subtitle: English / 0,174 kbps
Subtitle: Spanish / 0,174 kbps
Subtitle: Dutch / 0,174 kbps
Subtitle: French / 0,174 kbps
Subtitle: Portuguese / 0,174 kbps
Subtitle: German / 0,174 kbps
Subtitle: Italian / 0,174 kbps


********************
PLAYLIST: 00031.MPLS
********************

<--- BEGIN FORUMS PASTE --->
[code]
                                                                                                                Total   Video                                             
Title                                                           Codec   Length  Movie Size      Disc Size       Bitrate Bitrate Main Audio Track                          Secondary Audio Track
-----                                                           ------  ------- --------------  --------------  ------- ------- ------------------                        ---------------------
00031.MPLS                                                      AVC     0:09:38 3 072 884 736   36 585 184 634  42,50   28,25   LPCM 2.0 4608Kbps (96kHz/24-bit)          DTS-HD Master 5.1 6892Kbps (96kHz/24-bit)
[/code]

[code]

DISC INFO:

Disc Title:     THE BEATLES 1
Disc Size:      36 585 184 634 bytes
Protection:     AACS
BD-Java:        No
BDInfo:         0.5.8

PLAYLIST REPORT:

Name:                   00031.MPLS
Length:                 0:09:38.377 (h:m:s.ms)
Size:                   3 072 884 736 bytes
Total Bitrate:          42,50 Mbps

VIDEO:

Codec                   Bitrate             Description     
-----                   -------             -----------     
MPEG-4 AVC Video        28254 kbps          1080i / 29,970 fps / 16:9 / High Profile 4.1

AUDIO:

Codec                           Language        Bitrate         Description     
-----                           --------        -------         -----------     
LPCM Audio                      English         4608 kbps       2.0 / 96 kHz / 4608 kbps / 24-bit
DTS-HD Master Audio             English         6892 kbps       5.1 / 96 kHz / 6892 kbps / 24-bit (DTS Core: 5.1 / 48 kHz / 1509 kbps / 24-bit)
Dolby Digital Audio             English         640 kbps        5.1 / 48 kHz / 640 kbps

SUBTITLES:

Codec                           Language        Bitrate         Description     
-----                           --------        -------         -----------     
Presentation Graphics           English         6,299 kbps                      
Presentation Graphics           Spanish         5,826 kbps                      
Presentation Graphics           Dutch           5,927 kbps                      
Presentation Graphics           French          6,033 kbps                      
Presentation Graphics           Portuguese      5,795 kbps                      
Presentation Graphics           German          6,898 kbps                      
Presentation Graphics           Italian         5,880 kbps                      

FILES:

Name            Time In         Length          Size            Total Bitrate   
----            -------         ------          ----            -------------   
00104.M2TS      0:00:00.000     0:01:37.964     327 634 944     26 755          
00062.M2TS      0:01:37.964     0:07:59.412     2 730 362 880   45 562          
00097.M2TS      0:09:37.376     0:00:01.000     14 886 912      118 976         

CHAPTERS:

Number          Time In         Length          Avg Video Rate  Max 1-Sec Rate  Max 1-Sec Time  Max 5-Sec Rate  Max 5-Sec Time  Max 10Sec Rate  Max 10Sec Time  Avg Frame Size  Max Frame Size  Max Frame Time  
------          -------         ------          --------------  --------------  --------------  --------------  --------------  --------------  --------------  --------------  --------------  --------------  
1               0:00:00.000     0:01:37.964     20 010 kbps     27 476 kbps     00:00:03.403    23 992 kbps     00:00:01.434    22 631 kbps     00:00:01.234    83 429 bytes    215 262 bytes   00:01:11.337    
2               0:01:37.964     0:07:59.412     29 998 kbps     58 957 kbps     00:01:38.965    35 266 kbps     00:01:39.365    32 240 kbps     00:01:38.364    125 115 bytes   560 114 bytes   00:01:39.766    
3               0:09:37.376     0:00:01.000     96 kbps         0 kbps          00:00:00.000    0 kbps          00:00:00.000    0 kbps          00:00:00.000    415 bytes       1 469 bytes     00:09:38.344    

STREAM DIAGNOSTICS:

File            PID             Type            Codec           Language                Seconds                 Bitrate                 Bytes           Packets         
----            ---             ----            -----           --------                --------------          --------------          -------------   -----           
00104.M2TS      4113 (0x1011)   0x1B            AVC                                     97,864                  20 020                  244 905 759     1 332 745       
00104.M2TS      4352 (0x1100)   0x80            LPCM            eng (English)           97,864                  1 544                   18 887 652      117 558         
00104.M2TS      4353 (0x1101)   0x80            LPCM            eng (English)           97,864                  1 544                   18 887 652      117 558         
00104.M2TS      4354 (0x1102)   0x80            LPCM            eng (English)           97,864                  1 544                   18 887 652      117 558         
00104.M2TS      4608 (0x1200)   0x90            PGS             eng (English)           97,864                  37                      452 393         2 614           
00104.M2TS      4609 (0x1201)   0x90            PGS             spa (Spanish)           97,864                  34                      418 204         2 428           
00104.M2TS      4610 (0x1202)   0x90            PGS             nld (Dutch)             97,864                  35                      425 496         2 466           
00104.M2TS      4611 (0x1203)   0x90            PGS             fra (French)            97,864                  35                      433 157         2 505           
00104.M2TS      4612 (0x1204)   0x90            PGS             por (Portuguese)        97,864                  34                      415 954         2 413           
00104.M2TS      4613 (0x1205)   0x90            PGS             deu (German)            97,864                  41                      495 701         2 852           
00104.M2TS      4614 (0x1206)   0x90            PGS             ita (Italian)           97,864                  35                      422 123         2 449           
00062.M2TS      4113 (0x1011)   0x1B            AVC                                     479,279                 30 008                  1 797 773 014   9 778 969       
00062.M2TS      4352 (0x1100)   0x80            LPCM            eng (English)           479,279                 4 616                   276 540 992     1 534 208       
00062.M2TS      4353 (0x1101)   0x86            DTS-HD MA       eng (English)           479,279                 7 960                   476 897 920     2 666 525       
00062.M2TS      4354 (0x1102)   0x81            AC3             eng (English)           479,279                 640                     38 356 480      224 745         
00062.M2TS      4608 (0x1200)   0x90            PGS             eng (English)           479,279                 0                       1 490           15              
00062.M2TS      4609 (0x1201)   0x90            PGS             spa (Spanish)           479,279                 0                       1 490           15              
00062.M2TS      4610 (0x1202)   0x90            PGS             nld (Dutch)             479,279                 0                       1 490           15              
00062.M2TS      4611 (0x1203)   0x90            PGS             fra (French)            479,279                 0                       1 490           15              
00062.M2TS      4612 (0x1204)   0x90            PGS             por (Portuguese)        479,279                 0                       1 490           15              
00062.M2TS      4613 (0x1205)   0x90            PGS             deu (German)            479,279                 0                       1 490           15              
00062.M2TS      4614 (0x1206)   0x90            PGS             ita (Italian)           479,279                 0                       1 490           15              
00097.M2TS      4113 (0x1011)   0x1B            AVC                                     0,934                   116                     13 489          132             
00097.M2TS      4352 (0x1100)   0x80            LPCM            eng (English)           0,934                   49 391                  5 768 000       32 000          
00097.M2TS      4353 (0x1101)   0x86            DTS-HD MA       eng (English)           0,934                   21 532                  2 514 556       15 029          
00097.M2TS      4354 (0x1102)   0x81            AC3             eng (English)           0,934                   41 211                  4 812 800       28 200          
00097.M2TS      4608 (0x1200)   0x90            PGS             eng (English)           0,934                   13                      1 490           15              
00097.M2TS      4609 (0x1201)   0x90            PGS             spa (Spanish)           0,934                   13                      1 490           15              
00097.M2TS      4610 (0x1202)   0x90            PGS             nld (Dutch)             0,934                   13                      1 490           15              
00097.M2TS      4611 (0x1203)   0x90            PGS             fra (French)            0,934                   13                      1 490           15              
00097.M2TS      4612 (0x1204)   0x90            PGS             por (Portuguese)        0,934                   13                      1 490           15              
00097.M2TS      4613 (0x1205)   0x90            PGS             deu (German)            0,934                   13                      1 490           15              
00097.M2TS      4614 (0x1206)   0x90            PGS             ita (Italian)           0,934                   13                      1 490           15              

[/code]
<---- END FORUMS PASTE ---->

QUICK SUMMARY:

Disc Title: THE BEATLES 1
Disc Size: 36 585 184 634 bytes
Protection: AACS
BD-Java: No
Playlist: 00031.MPLS
Size: 3 072 884 736 bytes
Length: 0:09:38.377
Total Bitrate: 42,50 Mbps
Video: MPEG-4 AVC Video / 28254 kbps / 1080i / 29,970 fps / 16:9 / High Profile 4.1
Audio: English / LPCM Audio / 2.0 / 96 kHz / 4608 kbps / 24-bit
Audio: English / DTS-HD Master Audio / 5.1 / 96 kHz / 6892 kbps / 24-bit (DTS Core: 5.1 / 48 kHz / 1509 kbps / 24-bit)
Audio: English / Dolby Digital Audio / 5.1 / 48 kHz / 640 kbps
Subtitle: English / 6,299 kbps
Subtitle: Spanish / 5,826 kbps
Subtitle: Dutch / 5,927 kbps
Subtitle: French / 6,033 kbps
Subtitle: Portuguese / 5,795 kbps
Subtitle: German / 6,898 kbps
Subtitle: Italian / 5,880 kbps


********************
PLAYLIST: 00010.MPLS
********************

<--- BEGIN FORUMS PASTE --->
[code]
                                                                                                                Total   Video                                             
Title                                                           Codec   Length  Movie Size      Disc Size       Bitrate Bitrate Main Audio Track                          Secondary Audio Track
-----                                                           ------  ------- --------------  --------------  ------- ------- ------------------                        ---------------------
00010.MPLS                                                      AVC     0:08:07 2 760 364 032   36 585 184 634  45,31   29,51   LPCM 2.0 4608Kbps (96kHz/24-bit)          DTS-HD Master 5.1 7910Kbps (96kHz/24-bit)
[/code]

[code]

DISC INFO:

Disc Title:     THE BEATLES 1
Disc Size:      36 585 184 634 bytes
Protection:     AACS
BD-Java:        No
BDInfo:         0.5.8

PLAYLIST REPORT:

Name:                   00010.MPLS
Length:                 0:08:07.420 (h:m:s.ms)
Size:                   2 760 364 032 bytes
Total Bitrate:          45,31 Mbps

VIDEO:

Codec                   Bitrate             Description     
-----                   -------             -----------     
MPEG-4 AVC Video        29511 kbps          1080i / 29,970 fps / 16:9 / High Profile 4.1

AUDIO:

Codec                           Language        Bitrate         Description     
-----                           --------        -------         -----------     
LPCM Audio                      English         4608 kbps       2.0 / 96 kHz / 4608 kbps / 24-bit
DTS-HD Master Audio             English         7910 kbps       5.1 / 96 kHz / 7910 kbps / 24-bit (DTS Core: 5.1 / 48 kHz / 1509 kbps / 24-bit)
Dolby Digital Audio             English         640 kbps        5.1 / 48 kHz / 640 kbps

SUBTITLES:

Codec                           Language        Bitrate         Description     
-----                           --------        -------         -----------     
Presentation Graphics           English         0,073 kbps                      
Presentation Graphics           Spanish         0,073 kbps                      
Presentation Graphics           Dutch           0,073 kbps                      
Presentation Graphics           French          0,073 kbps                      
Presentation Graphics           Portuguese      0,073 kbps                      
Presentation Graphics           German          0,073 kbps                      
Presentation Graphics           Italian         0,073 kbps                      

FILES:

Name            Time In         Length          Size            Total Bitrate   
----            -------         ------          ----            -------------   
00090.M2TS      0:00:00.000     0:00:07.006     15 114 240      17 256          
00062.M2TS      0:00:07.006     0:07:59.412     2 730 362 880   45 562          
00097.M2TS      0:08:06.419     0:00:01.000     14 886 912      118 976         

CHAPTERS:

Number          Time In         Length          Avg Video Rate  Max 1-Sec Rate  Max 1-Sec Time  Max 5-Sec Rate  Max 5-Sec Time  Max 10Sec Rate  Max 10Sec Time  Avg Frame Size  Max Frame Size  Max Frame Time  
------          -------         ------          --------------  --------------  --------------  --------------  --------------  --------------  --------------  --------------  --------------  --------------  
1               0:00:00.000     0:08:06.419     29 571 kbps     58 957 kbps     00:00:08.008    35 266 kbps     00:00:08.408    32 240 kbps     00:00:07.407    123 328 bytes   560 114 bytes   00:00:08.808    
2               0:08:06.419     0:00:01.000     96 kbps         0 kbps          00:00:00.000    0 kbps          00:00:00.000    0 kbps          00:00:00.000    415 bytes       1 469 bytes     00:08:07.386    

STREAM DIAGNOSTICS:

File            PID             Type            Codec           Language                Seconds                 Bitrate                 Bytes           Packets         
----            ---             ----            -----           --------                --------------          --------------          -------------   -----           
00090.M2TS      4113 (0x1011)   0x1B            AVC                                     6,907                   253                     218 520         1 317           
00090.M2TS      4352 (0x1100)   0x80            LPCM            eng (English)           6,907                   6 681                   5 768 000       32 000          
00090.M2TS      4353 (0x1101)   0x86            DTS-HD MA       eng (English)           6,907                   2 913                   2 514 556       15 029          
00090.M2TS      4354 (0x1102)   0x81            AC3             eng (English)           6,907                   5 574                   4 812 800       28 200          
00090.M2TS      4608 (0x1200)   0x90            PGS             eng (English)           6,907                   2                       1 490           15              
00090.M2TS      4609 (0x1201)   0x90            PGS             spa (Spanish)           6,907                   2                       1 490           15              
00090.M2TS      4610 (0x1202)   0x90            PGS             nld (Dutch)             6,907                   2                       1 490           15              
00090.M2TS      4611 (0x1203)   0x90            PGS             fra (French)            6,907                   2                       1 490           15              
00090.M2TS      4612 (0x1204)   0x90            PGS             por (Portuguese)        6,907                   2                       1 490           15              
00090.M2TS      4613 (0x1205)   0x90            PGS             deu (German)            6,907                   2                       1 490           15              
00090.M2TS      4614 (0x1206)   0x90            PGS             ita (Italian)           6,907                   2                       1 490           15              
00062.M2TS      4113 (0x1011)   0x1B            AVC                                     479,279                 30 008                  1 797 773 014   9 778 969       
00062.M2TS      4352 (0x1100)   0x80            LPCM            eng (English)           479,279                 4 616                   276 540 992     1 534 208       
00062.M2TS      4353 (0x1101)   0x86            DTS-HD MA       eng (English)           479,279                 7 960                   476 897 920     2 666 525       
00062.M2TS      4354 (0x1102)   0x81            AC3             eng (English)           479,279                 640                     38 356 480      224 745         
00062.M2TS      4608 (0x1200)   0x90            PGS             eng (English)           479,279                 0                       1 490           15              
00062.M2TS      4609 (0x1201)   0x90            PGS             spa (Spanish)           479,279                 0                       1 490           15              
00062.M2TS      4610 (0x1202)   0x90            PGS             nld (Dutch)             479,279                 0                       1 490           15              
00062.M2TS      4611 (0x1203)   0x90            PGS             fra (French)            479,279                 0                       1 490           15              
00062.M2TS      4612 (0x1204)   0x90            PGS             por (Portuguese)        479,279                 0                       1 490           15              
00062.M2TS      4613 (0x1205)   0x90            PGS             deu (German)            479,279                 0                       1 490           15              
00062.M2TS      4614 (0x1206)   0x90            PGS             ita (Italian)           479,279                 0                       1 490           15              
00097.M2TS      4113 (0x1011)   0x1B            AVC                                     0,934                   116                     13 489          132             
00097.M2TS      4352 (0x1100)   0x80            LPCM            eng (English)           0,934                   49 391                  5 768 000       32 000          
00097.M2TS      4353 (0x1101)   0x86            DTS-HD MA       eng (English)           0,934                   21 532                  2 514 556       15 029          
00097.M2TS      4354 (0x1102)   0x81            AC3             eng (English)           0,934                   41 211                  4 812 800       28 200          
00097.M2TS      4608 (0x1200)   0x90            PGS             eng (English)           0,934                   13                      1 490           15              
00097.M2TS      4609 (0x1201)   0x90            PGS             spa (Spanish)           0,934                   13                      1 490           15              
00097.M2TS      4610 (0x1202)   0x90            PGS             nld (Dutch)             0,934                   13                      1 490           15              
00097.M2TS      4611 (0x1203)   0x90            PGS             fra (French)            0,934                   13                      1 490           15              
00097.M2TS      4612 (0x1204)   0x90            PGS             por (Portuguese)        0,934                   13                      1 490           15              
00097.M2TS      4613 (0x1205)   0x90            PGS             deu (German)            0,934                   13                      1 490           15              
00097.M2TS      4614 (0x1206)   0x90            PGS             ita (Italian)           0,934                   13                      1 490           15              

[/code]
<---- END FORUMS PASTE ---->

QUICK SUMMARY:

Disc Title: THE BEATLES 1
Disc Size: 36 585 184 634 bytes
Protection: AACS
BD-Java: No
Playlist: 00010.MPLS
Size: 2 760 364 032 bytes
Length: 0:08:07.420
Total Bitrate: 45,31 Mbps
Video: MPEG-4 AVC Video / 29511 kbps / 1080i / 29,970 fps / 16:9 / High Profile 4.1
Audio: English / LPCM Audio / 2.0 / 96 kHz / 4608 kbps / 24-bit
Audio: English / DTS-HD Master Audio / 5.1 / 96 kHz / 7910 kbps / 24-bit (DTS Core: 5.1 / 48 kHz / 1509 kbps / 24-bit)
Audio: English / Dolby Digital Audio / 5.1 / 48 kHz / 640 kbps
Subtitle: English / 0,073 kbps
Subtitle: Spanish / 0,073 kbps
Subtitle: Dutch / 0,073 kbps
Subtitle: French / 0,073 kbps
Subtitle: Portuguese / 0,073 kbps
Subtitle: German / 0,073 kbps
Subtitle: Italian / 0,073 kbps


********************
PLAYLIST: 00021.MPLS
********************

<--- BEGIN FORUMS PASTE --->
[code]
                                                                                                                Total   Video                                             
Title                                                           Codec   Length  Movie Size      Disc Size       Bitrate Bitrate Main Audio Track                          Secondary Audio Track
-----                                                           ------  ------- --------------  --------------  ------- ------- ------------------                        ---------------------
00021.MPLS                                                      AVC     0:08:00 2 247 174 144   36 585 184 634  37,42   29,94   LPCM 2.0 1536Kbps (48kHz/16-bit)          LPCM 2.0 1536Kbps (48kHz/16-bit)
[/code]

[code]

DISC INFO:

Disc Title:     THE BEATLES 1
Disc Size:      36 585 184 634 bytes
Protection:     AACS
BD-Java:        No
BDInfo:         0.5.8

PLAYLIST REPORT:

Name:                   00021.MPLS
Length:                 0:08:00.413 (h:m:s.ms)
Size:                   2 247 174 144 bytes
Total Bitrate:          37,42 Mbps

VIDEO:

Codec                   Bitrate             Description     
-----                   -------             -----------     
MPEG-4 AVC Video        29937 kbps          1080i / 29,970 fps / 16:9 / High Profile 4.1

AUDIO:

Codec                           Language        Bitrate         Description     
-----                           --------        -------         -----------     
LPCM Audio                      English         1536 kbps       2.0 / 48 kHz / 1536 kbps / 16-bit
LPCM Audio                      English         1536 kbps       2.0 / 48 kHz / 1536 kbps / 16-bit
LPCM Audio                      English         1536 kbps       2.0 / 48 kHz / 1536 kbps / 16-bit

SUBTITLES:

Codec                           Language        Bitrate         Description     
-----                           --------        -------         -----------     
Presentation Graphics           English         45,455 kbps                     
Presentation Graphics           Spanish         41,915 kbps                     
Presentation Graphics           Dutch           42,600 kbps                     
Presentation Graphics           French          44,621 kbps                     
Presentation Graphics           Portuguese      39,488 kbps                     
Presentation Graphics           German          47,983 kbps                     
Presentation Graphics           Italian         42,233 kbps                     

FILES:

Name            Time In         Length          Size            Total Bitrate   
----            -------         ------          ----            -------------   
00057.M2TS      0:00:00.000     0:07:59.412     2 232 287 232   37 250          
00097.M2TS      0:07:59.412     0:00:01.000     14 886 912      118 976         

CHAPTERS:

Number          Time In         Length          Avg Video Rate  Max 1-Sec Rate  Max 1-Sec Time  Max 5-Sec Rate  Max 5-Sec Time  Max 10Sec Rate  Max 10Sec Time  Avg Frame Size  Max Frame Size  Max Frame Time  
------          -------         ------          --------------  --------------  --------------  --------------  --------------  --------------  --------------  --------------  --------------  --------------  
1               0:00:00.000     0:07:59.412     30 000 kbps     58 957 kbps     00:00:01.001    35 266 kbps     00:00:01.401    32 240 kbps     00:00:00.400    125 115 bytes   560 114 bytes   00:00:01.801    
2               0:07:59.412     0:00:01.000     96 kbps         0 kbps          00:00:00.000    0 kbps          00:00:00.000    0 kbps          00:00:00.000    415 bytes       1 469 bytes     00:08:00.379    

STREAM DIAGNOSTICS:

File            PID             Type            Codec           Language                Seconds                 Bitrate                 Bytes           Packets         
----            ---             ----            -----           --------                --------------          --------------          -------------   -----           
00057.M2TS      4113 (0x1011)   0x1B            AVC                                     479,279                 30 008                  1 797 773 014   9 778 969       
00057.M2TS      4352 (0x1100)   0x80            LPCM            eng (English)           479,279                 1 543                   92 436 032      575 328         
00057.M2TS      4353 (0x1101)   0x80            LPCM            eng (English)           479,279                 1 543                   92 436 032      575 328         
00057.M2TS      4354 (0x1102)   0x80            LPCM            eng (English)           479,279                 1 543                   92 436 032      575 328         
00057.M2TS      4608 (0x1200)   0x90            PGS             eng (English)           479,279                 46                      2 728 185       15 714          
00057.M2TS      4609 (0x1201)   0x90            PGS             spa (Spanish)           479,279                 42                      2 515 573       14 563          
00057.M2TS      4610 (0x1202)   0x90            PGS             nld (Dutch)             479,279                 43                      2 556 716       14 785          
00057.M2TS      4611 (0x1203)   0x90            PGS             fra (French)            479,279                 45                      2 678 092       15 440          
00057.M2TS      4612 (0x1204)   0x90            PGS             por (Portuguese)        479,279                 40                      2 369 818       13 765          
00057.M2TS      4613 (0x1205)   0x90            PGS             deu (German)            479,279                 48                      2 879 960       16 547          
00057.M2TS      4614 (0x1206)   0x90            PGS             ita (Italian)           479,279                 42                      2 534 643       14 663          
00097.M2TS      4113 (0x1011)   0x1B            AVC                                     0,934                   116                     13 489          132             
00097.M2TS      4352 (0x1100)   0x80            LPCM            eng (English)           0,934                   49 391                  5 768 000       32 000          
00097.M2TS      4353 (0x1101)   0x86            DTS-HD MA       eng (English)           0,934                   21 532                  2 514 556       15 029          
00097.M2TS      4354 (0x1102)   0x81            AC3             eng (English)           0,934                   41 211                  4 812 800       28 200          
00097.M2TS      4608 (0x1200)   0x90            PGS             eng (English)           0,934                   13                      1 490           15              
00097.M2TS      4609 (0x1201)   0x90            PGS             spa (Spanish)           0,934                   13                      1 490           15              
00097.M2TS      4610 (0x1202)   0x90            PGS             nld (Dutch)             0,934                   13                      1 490           15              
00097.M2TS      4611 (0x1203)   0x90            PGS             fra (French)            0,934                   13                      1 490           15              
00097.M2TS      4612 (0x1204)   0x90            PGS             por (Portuguese)        0,934                   13                      1 490           15              
00097.M2TS      4613 (0x1205)   0x90            PGS             deu (German)            0,934                   13                      1 490           15              
00097.M2TS      4614 (0x1206)   0x90            PGS             ita (Italian)           0,934                   13                      1 490           15              

[/code]
<---- END FORUMS PASTE ---->

QUICK SUMMARY:

Disc Title: THE BEATLES 1
Disc Size: 36 585 184 634 bytes
Protection: AACS
BD-Java: No
Playlist: 00021.MPLS
Size: 2 247 174 144 bytes
Length: 0:08:00.413
Total Bitrate: 37,42 Mbps
Video: MPEG-4 AVC Video / 29937 kbps / 1080i / 29,970 fps / 16:9 / High Profile 4.1
Audio: English / LPCM Audio / 2.0 / 48 kHz / 1536 kbps / 16-bit
Audio: English / LPCM Audio / 2.0 / 48 kHz / 1536 kbps / 16-bit
Audio: English / LPCM Audio / 2.0 / 48 kHz / 1536 kbps / 16-bit
Subtitle: English / 45,455 kbps
Subtitle: Spanish / 41,915 kbps
Subtitle: Dutch / 42,600 kbps
Subtitle: French / 44,621 kbps
Subtitle: Portuguese / 39,488 kbps
Subtitle: German / 47,983 kbps
Subtitle: Italian / 42,233 kbps


********************
PLAYLIST: 00061.MPLS
********************

<--- BEGIN FORUMS PASTE --->
[code]
                                                                                                                Total   Video                                             
Title                                                           Codec   Length  Movie Size      Disc Size       Bitrate Bitrate Main Audio Track                          Secondary Audio Track
-----                                                           ------  ------- --------------  --------------  ------- ------- ------------------                        ---------------------
00061.MPLS                                                      AVC     0:08:00 2 745 249 792   36 585 184 634  45,71   29,94   LPCM 2.0 4608Kbps (96kHz/24-bit)          DTS-HD Master 5.1 7983Kbps (96kHz/24-bit)
[/code]

[code]

DISC INFO:

Disc Title:     THE BEATLES 1
Disc Size:      36 585 184 634 bytes
Protection:     AACS
BD-Java:        No
BDInfo:         0.5.8

PLAYLIST REPORT:

Name:                   00061.MPLS
Length:                 0:08:00.413 (h:m:s.ms)
Size:                   2 745 249 792 bytes
Total Bitrate:          45,71 Mbps

VIDEO:

Codec                   Bitrate             Description     
-----                   -------             -----------     
MPEG-4 AVC Video        29937 kbps          1080i / 29,970 fps / 16:9 / High Profile 4.1

AUDIO:

Codec                           Language        Bitrate         Description     
-----                           --------        -------         -----------     
LPCM Audio                      English         4608 kbps       2.0 / 96 kHz / 4608 kbps / 24-bit
DTS-HD Master Audio             English         7983 kbps       5.1 / 96 kHz / 7983 kbps / 24-bit (DTS Core: 5.1 / 48 kHz / 1509 kbps / 24-bit)
Dolby Digital Audio             English         640 kbps        5.1 / 48 kHz / 640 kbps

SUBTITLES:

Codec                           Language        Bitrate         Description     
-----                           --------        -------         -----------     
Presentation Graphics           English         0,050 kbps                      
Presentation Graphics           Spanish         0,050 kbps                      
Presentation Graphics           Dutch           0,050 kbps                      
Presentation Graphics           French          0,050 kbps                      
Presentation Graphics           Portuguese      0,050 kbps                      
Presentation 


Create a new paste based on this one


Comments: