[ create a new paste ] login | about

Link: http://codepad.org/xidhMZcV    [ raw code | fork ]

Plain Text, pasted on Jul 23:
foobar2000 1.3 / Dynamic Range Meter 1.1.1
log date: 2015-05-12 12:38:45

--------------------------------------------------------------------------------
Analyzed: The Band / Music From Big Pink (2014 SHM-SACD)
--------------------------------------------------------------------------------

DR         Peak         RMS     Duration Track
--------------------------------------------------------------------------------
DR12      -2.42 dB   -18.79 dB      5:24 01-Tears Of Rage
DR14      -0.66 dB   -18.43 dB      3:23 02-To Kingdom Come
DR13      -3.19 dB   -17.96 dB      3:35 03-In A Station
DR11      -3.06 dB   -18.47 dB      2:59 04-Caledonia Mission
DR14      -1.18 dB   -19.97 dB      4:39 05-The Weight
DR13      -2.42 dB   -17.83 dB      3:06 06-We Can Talk
DR12      -0.71 dB   -15.57 dB      3:06 07-Long Black Veil
DR13      -0.27 dB   -16.71 dB      5:19 08-Chest Fever
DR11      -1.96 dB   -15.90 dB      4:04 09-Lonesome Suzie
DR13      -1.60 dB   -17.71 dB      3:14 10-This Wheel's On Fire
DR12      -2.96 dB   -17.50 dB      3:14 11-I Shall Be Released
--------------------------------------------------------------------------------

Number of tracks:  11
Official DR value: DR13

Samplerate:        88200 Hz
Channels:          2
Bits per sample:   24
Bitrate:           2667 kbps
Codec:             FLAC
================================================================================




Create a new paste based on this one


Comments: