[ create a new paste ] login | about

Link: http://codepad.org/xjGxgbjD    [ raw code | fork ]

Plain Text, pasted on Apr 27:
Exact Audio Copy V1.3 from 2. September 2016

EAC extraction logfile from 22. April 2019, 18:18

Mott The Hoople / Brain Capers

Used drive  : PLEXTOR BD-R  PX-B950SA   Adapter: 1  ID: 1

Read mode               : Secure
Utilize accurate stream : Yes
Defeat audio cache      : Yes
Make use of C2 pointers : No

Read offset correction                      : 6
Overread into Lead-In and Lead-Out          : No
Fill up missing offset samples with silence : Yes
Delete leading and trailing silent blocks   : No
Null samples used in CRC calculations       : Yes
Used interface                              : Native Win32 interface for Win NT & 2000

Used output format : Internal WAV Routines
Sample format      : 44.100 Hz; 16 Bit; Stereo


TOC of the extracted CD

     Track |   Start  |  Length  | Start sector | End sector 
    ---------------------------------------------------------
        1  |  0:00.00 |  4:55.45 |         0    |    22169   
        2  |  4:55.45 |  4:13.29 |     22170    |    41173   
        3  |  9:08.74 |  4:32.24 |     41174    |    61597   
        4  | 13:41.23 |  9:15.33 |     61598    |   103255   
        5  | 22:56.56 |  4:53.14 |    103256    |   125244   
        6  | 27:49.70 |  3:46.57 |    125245    |   142251   
        7  | 31:36.52 |  5:01.62 |    142252    |   164888   
        8  | 36:38.39 |  1:19.35 |    164889    |   170848   
        9  | 37:57.74 |  5:18.35 |    170849    |   194733   
       10  | 43:16.34 |  4:12.51 |    194734    |   213684   
       11  | 47:29.10 |  3:05.28 |    213685    |   227587   
       12  | 50:34.38 |  4:13.60 |    227588    |   246622   
       13  | 54:48.23 |  3:17.30 |    246623    |   261427   
       14  | 58:05.53 |  4:23.46 |    261428    |   281198   
       15  | 62:29.24 |  2:47.70 |    281199    |   293793   
       16  | 65:17.19 |  3:41.49 |    293794    |   310417   


Range status and errors

Selected range

     Filename C:\Mott The Hoople\2018 Mental Train (6CD Box Set Universal Music)\1971 Brain Capers\Mott The Hoople - Brain Capers.wav

     Peak level 97.0 %
     Extraction speed 8.5 X
     Range quality 100.0 %
     Test CRC 2E5DF0CE
     Copy CRC 2E5DF0CE
     Copy OK

No errors occurred

 
AccurateRip summary
 
Track  1  accurately ripped (confidence 4)  [9048E9AA]  (AR v2)
Track  2  accurately ripped (confidence 4)  [906DD79B]  (AR v2)
Track  3  accurately ripped (confidence 4)  [24AE50BC]  (AR v2)
Track  4  accurately ripped (confidence 4)  [4D3CD005]  (AR v2)
Track  5  accurately ripped (confidence 4)  [118ACAC9]  (AR v2)
Track  6  accurately ripped (confidence 4)  [A5A28D36]  (AR v2)
Track  7  accurately ripped (confidence 4)  [C75442B4]  (AR v2)
Track  8  accurately ripped (confidence 4)  [45B0FE4F]  (AR v2)
Track  9  accurately ripped (confidence 4)  [E094D718]  (AR v2)
Track 10  accurately ripped (confidence 4)  [547CB45C]  (AR v2)
Track 11  accurately ripped (confidence 4)  [96339EB9]  (AR v2)
Track 12  accurately ripped (confidence 4)  [889BA0A2]  (AR v2)
Track 13  accurately ripped (confidence 4)  [AE0BAB90]  (AR v2)
Track 14  accurately ripped (confidence 4)  [0486F019]  (AR v2)
Track 15  accurately ripped (confidence 4)  [6DFA6EE1]  (AR v2)
Track 16  accurately ripped (confidence 4)  [D784D796]  (AR v2)
 
All tracks accurately ripped

End of status report

---- CUETools DB Plugin V2.1.6

[CTDB TOCID: 1HUrSevsR646DB.6phXuW3fidIg-] found
Submit result: 1HUrSevsR646DB.6phXuW3fidIg- has been confirmed
Track | CTDB Status
  1   | (20/20) Accurately ripped
  2   | (20/20) Accurately ripped
  3   | (20/20) Accurately ripped
  4   | (20/20) Accurately ripped
  5   | (20/20) Accurately ripped
  6   | (20/20) Accurately ripped
  7   | (20/20) Accurately ripped
  8   | (20/20) Accurately ripped
  9   | (20/20) Accurately ripped
 10   | (20/20) Accurately ripped
 11   | (20/20) Accurately ripped
 12   | (20/20) Accurately ripped
 13   | (20/20) Accurately ripped
 14   | (20/20) Accurately ripped
 15   | (20/20) Accurately ripped
 16   | (20/20) Accurately ripped


==== Log checksum F339AF0C8A5B159D932939BBEC3A2B4A019C2582A2FEF35A2DD389D2862C9C18 ====



Create a new paste based on this one


Comments: