[ create a new paste ] login | about

Link: http://codepad.org/xm0P3lBE    [ raw code | fork ]

Plain Text, pasted on May 10:
foobar2000 1.3.17 / Dynamic Range Meter 1.1.1
log date: 2018-05-10 09:34:33

--------------------------------------------------------------------------------
Analyzed: Jimi Hendrix / South Side Of The Sky [Experience Hendrix 2x 180g Vinyl]
--------------------------------------------------------------------------------

DR         Peak         RMS     Duration Track
--------------------------------------------------------------------------------
DR12      -0.40 dB   -14.22 dB      5:00 01-Mannish Boy
DR11      -1.08 dB   -14.01 dB      3:03 02-Lover Man
DR10      -1.50 dB   -13.95 dB      7:27 03-Hear My Train A Comin'
DR12      -1.45 dB   -15.31 dB      3:14 04-Stepping Stone
DR11      -1.00 dB   -14.02 dB      4:59 05-$20 Fine
DR12      -0.91 dB   -15.23 dB      5:55 06-Power Of Soul
DR13      -0.83 dB   -16.16 dB      3:30 07-Jungle
DR11      -0.72 dB   -12.91 dB      3:41 08-Things I Used To Do
DR11      -0.40 dB   -13.55 dB      7:54 09-Georgia Blues
DR11      -1.16 dB   -14.28 dB      4:00 10-Sweet Angel
DR11      -0.73 dB   -13.55 dB      5:19 11-Woodstock
DR11      -1.15 dB   -15.89 dB      4:36 12-Send My Love To Linda
DR12      -0.82 dB   -16.30 dB      7:03 13-Cherokee Mist
--------------------------------------------------------------------------------

Number of tracks:  13
Official DR value: DR11

Samplerate:        192000 Hz
Channels:          2
Bits per sample:   24
Bitrate:           5356 kbps
Codec:             FLAC
================================================================================




Create a new paste based on this one


Comments: