[ create a new paste ] login | about

Link: http://codepad.org/xmI3oPZh    [ raw code | fork ]

Plain Text, pasted on Aug 1:
foobar2000 1.3.17 / Dynamic Range Meter 1.1.1
log date: 2018-08-01 10:36:12

--------------------------------------------------------------------------------
Analyzed: Albert King With Stevie Ray Vaughan / In Session
--------------------------------------------------------------------------------

DR         Peak         RMS     Duration Track
--------------------------------------------------------------------------------
DR9       -0.01 dB   -12.23 dB      9:02 01-Call It Stormy Monday
DR19      -4.16 dB   -30.17 dB      1:16 02-'Old Times'
DR10      -0.15 dB   -12.32 dB      5:58 03-Pride And Joy
DR10      -0.20 dB   -12.37 dB      5:03 04-Ask Me No Questions
DR14      -1.43 dB   -33.99 dB      0:52 05-'Pep Talk'
DR11      -0.08 dB   -13.99 dB     15:11 06-Blues At Sunrise
DR19      -2.47 dB   -27.52 dB      0:51 07-'Turn It Over'
DR10      -0.11 dB   -11.98 dB      8:22 08-Overall Junction
DR11      -0.23 dB   -14.29 dB      7:39 09-Match Box Blues
DR15      -8.63 dB   -30.24 dB      0:44 10-'Who Is Stevie?'
DR10      -0.20 dB   -12.01 dB      8:58 11-Don't Lie To Me
--------------------------------------------------------------------------------

Number of tracks:  11
Official DR value: DR13

Samplerate:        88200 Hz
Channels:          2
Bits per sample:   24
Bitrate:           2804 kbps
Codec:             FLAC
================================================================================




Create a new paste based on this one


Comments: