[ create a new paste ] login | about

Link: http://codepad.org/xnrifAsP    [ raw code | fork ]

Plain Text, pasted on Mar 19:
[CUETools log; Date: 3/18/2019 10:05:49 PM; Version: 2.1.5]
[CTDB TOCID: OTn5EYRQxJKiVvHUO9rZlHTMr04-] found.
Track | CTDB Status
  1   | (54/54) Accurately ripped
  2   | (54/54) Accurately ripped
  3   | (54/54) Accurately ripped
  4   | (54/54) Accurately ripped
  5   | (54/54) Accurately ripped
  6   | (54/54) Accurately ripped
  7   | (54/54) Accurately ripped
  8   | (54/54) Accurately ripped
  9   | (54/54) Accurately ripped
 10   | (54/54) Accurately ripped
 11   | (54/54) Accurately ripped
 12   | (54/54) Accurately ripped
 13   | (54/54) Accurately ripped
 14   | (54/54) Accurately ripped
 15   | (54/54) Accurately ripped
 16   | (54/54) Accurately ripped
 17   | (54/54) Accurately ripped
 18   | (53/54) Accurately ripped
[AccurateRip ID: 002de298-0274e0e2-1911d212] found.
Track   [  CRC   |   V2   ] Status
 01     [f6b85efd|03ccfaa8] (0+7/7) Accurately ripped
 02     [6fb3226a|3937366e] (0+7/7) Accurately ripped
 03     [ff81549a|f619c8c4] (0+7/7) Accurately ripped
 04     [866013cd|ce68324e] (0+7/7) Accurately ripped
 05     [e160a350|d260f3f2] (0+7/7) Accurately ripped
 06     [f66842eb|a01dde46] (0+7/7) Accurately ripped
 07     [155026ce|296482cf] (0+7/7) Accurately ripped
 08     [e7795327|eaf12d49] (0+7/7) Accurately ripped
 09     [e964d12a|2f45c611] (0+7/7) Accurately ripped
 10     [60c6d36a|7745f6c0] (0+7/7) Accurately ripped
 11     [9b24237f|f7a1edb1] (0+7/7) Accurately ripped
 12     [3f0d0491|62b631ba] (0+7/7) Accurately ripped
 13     [e49bf1c1|0d6b629e] (0+7/7) Accurately ripped
 14     [4e501495|0dbb1fdb] (0+7/7) Accurately ripped
 15     [c7250b88|70454c16] (0+7/7) Accurately ripped
 16     [561005e3|59398304] (0+7/7) Accurately ripped
 17     [81a31c69|53cbb93d] (0+7/7) Accurately ripped
 18     [4ed9ccfd|85e74aa7] (0+7/7) Accurately ripped

Track Peak [ CRC32  ] [W/O NULL] [  LOG   ]
 --   99.1 [2DABF83E] [9F8E2393]   CRC32   
 01   95.5 [3E6D9CC4] [D53423C8]           
 02   80.2 [69355E11] [C21F18A4]           
 03   96.9 [077EED24] [F69A4D63]           
 04   88.3 [DF16B1D2] [A1687D35]           
 05   91.9 [597EF2A5] [0C5AC7B0]           
 06   92.2 [D82AAD1B] [FAAA424E]           
 07   98.3 [BDF42310] [7C33BFC9]           
 08   93.6 [83347FA6] [3847CD4D]           
 09   89.8 [F39E6AB6] [02F38E49]           
 10   96.6 [0BEE3CCB] [7479553A]           
 11   93.8 [0F37A3E5] [2C8DF123]           
 12   99.1 [DD19406B] [B6BA6BD8]           
 13   87.0 [9EE5DF24] [B303A312]           
 14   97.1 [B4CF2C26] [DD77B40D]           
 15   91.1 [D7AB94DD] [17699B31]           
 16   75.0 [3A3F3B00] [04C4B32F]           
 17   85.9 [26971475] [37F1EE90]           
 18   80.8 [E00B8962] [09D4F396]           



Create a new paste based on this one


Comments: