[ create a new paste ] login | about

Link: http://codepad.org/xoOEY1Th    [ raw code | fork ]

Plain Text, pasted on Aug 7:
foobar2000 1.3.17 / Dynamic Range Meter 1.1.1
log date: 2018-08-06 13:11:05

--------------------------------------------------------------------------------
Analyzed: Rod Stewart / Every Picture Tells A Story
--------------------------------------------------------------------------------

DR         Peak         RMS     Duration Track
--------------------------------------------------------------------------------
DR12      -0.32 dB   -14.96 dB      6:02 01-Every Picture Tells A Story
DR12      -1.22 dB   -16.29 dB      4:03 02-Seems Like A Long Time
DR12      -0.13 dB   -15.77 dB      6:00 03-That's All Right
DR10      -3.16 dB   -16.76 dB      3:44 04-Tomorrow Is A Long Time
DR11      -1.33 dB   -16.68 dB      5:55 05-Maggie May
DR12      -0.51 dB   -16.84 dB      5:33 06-Mandolin Wind
DR13      -0.36 dB   -15.55 dB      5:23 07-(I Know) I'm Losing You
DR11      -0.98 dB   -15.27 dB      4:06 08-Reason To Believe
--------------------------------------------------------------------------------

Number of tracks:  8
Official DR value: DR12

Samplerate:        192000 Hz
Channels:          2
Bits per sample:   24
Bitrate:           5708 kbps
Codec:             FLAC
================================================================================




Create a new paste based on this one


Comments: