[ create a new paste ] login | about

Link: http://codepad.org/xsdz3lex    [ raw code | fork ]

Plain Text, pasted on Jul 29:
Exact Audio Copy V1.3 from 2. September 2016

EAC extraction logfile from 21. July 2019, 10:44

Tangerine Dream / Stratosfear

Used drive  : Optiarc DVD RW AD-7280S   Adapter: 1  ID: 0

Read mode               : Secure
Utilize accurate stream : Yes
Defeat audio cache      : Yes
Make use of C2 pointers : No

Read offset correction                      : 48
Overread into Lead-In and Lead-Out          : No
Fill up missing offset samples with silence : Yes
Delete leading and trailing silent blocks   : No
Null samples used in CRC calculations       : Yes
Used interface                              : Native Win32 interface for Win NT & 2000

Used output format : Internal WAV Routines
Sample format      : 44.100 Hz; 16 Bit; Stereo


TOC of the extracted CD

     Track |   Start  |  Length  | Start sector | End sector 
    ---------------------------------------------------------
        1  |  0:00.00 | 10:35.55 |         0    |    47679   
        2  | 10:35.55 |  4:31.19 |     47680    |    68023   
        3  | 15:06.74 |  8:48.22 |     68024    |   107645   
        4  | 23:55.21 | 11:30.24 |    107646    |   159419   
        5  | 35:25.45 | 34:07.08 |    159420    |   312952   
        6  | 69:32.53 |  4:20.33 |    312953    |   332485   
        7  | 73:53.11 |  3:24.37 |    332486    |   347822   


Range status and errors

Selected range

     Filename C:\Tangerine Dream\2019 In Search Of Hades (18-Disc Box Set Universal Music)\CD13 1976 Stratosfear\Tangerine Dream - Stratosfear.wav

     Peak level 98.6 %
     Extraction speed 4.6 X
     Range quality 100.0 %
     Test CRC A1810025
     Copy CRC A1810025
     Copy OK

No errors occurred

 
AccurateRip summary
 
Track  1  not present in database
Track  2  not present in database
Track  3  not present in database
Track  4  not present in database
Track  5  not present in database
Track  6  not present in database
Track  7  not present in database
 
None of the tracks are present in the AccurateRip database

End of status report

---- CUETools DB Plugin V2.1.6

[CTDB TOCID: M_O8kvOeNNM_9Wbxckw9WTTkho0-] found
Submit result: M_O8kvOeNNM_9Wbxckw9WTTkho0- has been confirmed
Track | CTDB Status
  1   | (71/72) Accurately ripped
  2   | (72/72) Accurately ripped
  3   | (72/72) Accurately ripped
  4   | (72/72) Accurately ripped
  5   | (66/72) Accurately ripped
  6   | (70/72) Accurately ripped
  7   | (68/72) Accurately ripped


==== Log checksum F6D3D630A6DB6169F2787725DE63A69F5ABA7BF7544B618BD5DFDA9AABDFE7AC ====



Create a new paste based on this one


Comments: